Today is a free download without charge Download

Побочный эффект / Side Effects (Стивен Содерберг / Steven Soderbergh) [2013, США, триллер, драма, криминал, BDRip 1080p] Dub (R5) + Original (Eng) + Subs (Eng)

Reply to topic
 
Author
Message

Omen ®

Longevity: 8 years 5 months

Posts: 181087

Торрент-статистика

Post 10-May-2013 00:32

[Quote]

Побочный эффект / Side Effects

-
-Страна: США
Студия: Di Bonaventura Pictures, Endgame Entertainment
Жанр: триллер, драма, криминал
Год выпуска: 2013
Продолжительность: 01:46:23--Перевод: Профессиональный (дублированный) R5
Cубтитры: английские SDH
Оригинальная аудиодорожка: английский--Режиссер: Стивен Содерберг / Steven Soderbergh
В ролях: Джуд Лоу, Руни Мара, Кэтрин Зета-Джонс, Ченнинг Татум, Кармен Пелаес, Марин Айрлэнд, Полли Дрэйпер, Аральдо Альварес, Джеймс Мартинез, Владимир Версейл--Описание: Жизнь главной героини Эмили пошла под откос, когда её мужа посадили в тюрьму. Вначале она пыталась спастись от депрессии своими силами, горстями глотая успокоительное. После того, как стало понятно, что это не поможет, Эмили не оставалось другого выхода кроме отправления в психиатрическую лечебницу к добрым и заботливым людям в белых халатах.
Теперь главная героиня борется со своими внутренними демонами уже не одна — справиться с угнетённым состоянием ей помогают два лучших доктора клиники, а также экспериментальные препараты, обладающие довольно странными побочными эффектами. Не получится ли так, что все внутренние страхи Эмили вместо того, чтобы исчезнуть, вырвутся наружу?--imdb | kinopoisk | Сэмпл--Тип релиза: BDRip 1080p [Side.Effects.2013.1080p.BluRay.DTS.x264-HDWinG]
Контейнер: MKV
Видео: MPEG-4 AVC / 13,7 Mbps / 1920x1040 / 23,976 fps / 1,85:1 / High Profile 4.1
Аудио 1: AC3 / 5.1 / 48 kHz / 448 kbps / 16 bits |Dub, R5|
Аудио 2: DTS / 5.1 / 48 kHz / 1510 kbps / 24 bits |original|
Формат субтитров: softsub [SRT]

MediaInfo

Общее
Уникальный идентификатор : 214996351046358118569979345693839184690 (0xA1BECA81B0B847F0977C81F2829BD332)
Полное имя : G:\HD\Побочный эффект.2013.BDRip.(1080p).mkv
Формат : Matroska
Версия формата : Version 2
Размер файла : 11,9 Гбайт
Продолжительность : 1 ч. 46 м.
Общий поток : 16,0 Мбит/сек
Дата кодирования : UTC 2013-05-09 17:29:43
Программа кодирования : mkvmerge v5.8.0 ('No Sleep / Pillow') built on Sep 2 2012 15:37:04
Библиотека кодирования : libebml v1.2.3 + libmatroska v1.3.0
Видео
Идентификатор : 1
Формат : AVC
Формат/Информация : Advanced Video Codec
Профиль формата : [email protected]
Параметр CABAC формата : Да
Параметр ReFrames формата : 4 кадра
Идентификатор кодека : V_MPEG4/ISO/AVC
Продолжительность : 1 ч. 46 м.
Битрейт : 13,7 Мбит/сек
Ширина : 1920 пикселей
Высота : 1040 пикселей
Соотношение сторон : 1,85:1
Режим частоты кадров : Постоянный
Частота кадров : 23,976 кадра/сек
Цветовое пространство : YUV
Субдискретизация насыщенности : 4:2:0
Битовая глубина : 8 бит
Тип развёртки : Прогрессивная
Бит/(Пиксели*Кадры) : 0.287
Размер потока : 10,2 Гбайт (86%)
Заголовок : Side.Effects.2013.1080p.BluRay.DTS.x264-HDWinG
Библиотека кодирования : x264 core 130 r2274+704+40 24c804d tMod+MixAQ [[email protected]:2:0 X86_64]
Настройки программы : cabac=1 / ref=4 / deblock=1:-3:-3 / analyse=0x3:0x113 / me=umh / subme=11 / psy=1 / fade_compensate=0.00 / psy_rd=1.05:0.00 / mixed_ref=1 / me_range=48 / chroma_me=1 / trellis=2 / 8x8dct=1 / cqm=0 / deadzone=21,11 / fast_pskip=0 / chroma_qp_offset=-2 / threads=36 / lookahead_threads=6 / sliced_threads=0 / nr=0 / decimate=0 / interlaced=0 / bluray_compat=0 / constrained_intra=0 / fgo=0 / bframes=8 / b_pyramid=2 / b_adapt=2 / b_bias=0 / direct=3 / weightb=1 / open_gop=0 / weightp=2 / keyint=240 / keyint_min=24 / scenecut=40 / intra_refresh=0 / rc=crf / mbtree=0 / crf=17.8000 / qcomp=0.72 / qpmin=0 / qpmax=69 / qpstep=4 / ip_ratio=1.25 / pb_ratio=1.20 / aq=4:0.80 / aq-sensitivity=10.00 / aq-ifactor=1.00 / aq-pfactor=1.00 / aq-bfactor=1.00 / aq2=0
Язык : English
Default : Да
Forced : Нет
Аудио #1
Идентификатор : 2
Формат : AC-3
Формат/Информация : Audio Coding 3
Расширение режима : CM (complete main)
Параметр Endianness формата : Big
Идентификатор кодека : A_AC3
Продолжительность : 1 ч. 46 м.
Вид битрейта : Постоянный
Битрейт : 448 Кбит/сек
Каналы : 6 каналов
Расположение каналов : Front: L C R, Side: L R, LFE
Частота : 48,0 КГц
Битовая глубина : 16 бит
Метод сжатия : С потерями
Размер потока : 341 Мбайт (3%)
Заголовок : Dub, R5
Язык : Russian
Default : Да
Forced : Нет
Аудио #2
Идентификатор : 3
Формат : DTS
Формат/Информация : Digital Theater Systems
Режим : 16
Параметр Endianness формата : Big
Идентификатор кодека : A_DTS
Продолжительность : 1 ч. 46 м.
Вид битрейта : Постоянный
Битрейт : 1509 Кбит/сек
Каналы : 6 каналов
Расположение каналов : Front: L C R, Side: L R, LFE
Частота : 48,0 КГц
Битовая глубина : 24 бит
Метод сжатия : С потерями
Размер потока : 1,12 Гбайт (9%)
Язык : English
Default : Нет
Forced : Нет
Текст
Идентификатор : 4
Формат : UTF-8
Идентификатор кодека : S_TEXT/UTF8
Идентификатор кодека/Информация : UTF-8 Plain Text
Заголовок : SDH
Язык : English
Default : Нет
Forced : Нет
Меню
00:00:00.000 : :Chapter 01
00:05:24.324 : :Chapter 02
00:07:59.437 : :Chapter 03
00:13:06.452 : :Chapter 04
00:18:22.935 : :Chapter 05
00:23:39.334 : :Chapter 06
00:30:36.960 : :Chapter 07
00:34:43.539 : :Chapter 08
00:37:39.632 : :Chapter 09
00:44:33.921 : :Chapter 10
00:51:34.716 : :Chapter 11
00:58:22.999 : :Chapter 12
01:03:43.152 : :Chapter 13
01:09:26.996 : :Chapter 14
01:15:53.423 : :Chapter 15
01:21:20.292 : :Chapter 16
01:26:27.765 : :Chapter 17
01:34:25.159 : :Chapter 18
01:38:37.745 : :Chapter 19
01:43:27.618 : :Chapter 20

Скриншоты


Видеоряд от HDWinG

Side.Effects.2013.1080p.BluRay.DTS.x264-HDWinG
----------MEDiA iNFO------------
SOURCE TYPE.....: Bluray
ViDEO BiTRATE...: x264 L4.1 High @ ~14M
RESOLUTiON......: 1920 x 1040
ASPECT RATiO....: 1.783:1
FRAME RATE......: 23.976
RUNTiME.........: 1:46:22.501 (h:m:s.ms)
AUDiO1..........: English DTS 5.1 @ 1509 kbps
SUBTiTLE........: English
iMDB............: http://www.imdb.com/title/tt2053463/
Ratings.........: 7.3/10 from 18,546 users
ENCODER ........: AVS
----------X264 iNFO------------
x264 [info]: frame I:972 Avg QP:14.83 size:230252
x264 [info]: frame P:29156 Avg QP:15.91 size:114859
x264 [info]: frame B:122899 Avg QP:16.88 size: 62140
x264 [info]: consecutive B-frames: 1.1% 1.3% 6.5% 6.0% 11.5% 65.5% 4.0% 2.5% 1.7%
Other forum [Profile] [PM]
Display posts from previous:    
Reply to topic

The time now is: Today 23:55

All times are GMT + 3 Hours



You cannot post new topics in this forum
You cannot reply to topics in this forum
You cannot edit your posts in this forum
You cannot delete your posts in this forum
You cannot vote in polls in this forum
You cannot attach files in this forum
You cannot download files in this forum