Today is a free download without charge Download

Discovery. 10 способов заглянуть в будущее / Ten Ways to See into the Future (2005) SATRip

Reply to topic
 
Author
Message

UndegraundMen ®

Longevity: 7 years 7 months

Posts: 25145

Торрент-статистика

Post 10-May-2013 00:02

[Quote]

Discovery. 10 способов заглянуть в будущее / Ten Ways to See into the Future (2005) SATRip- Русское название: 10 способов заглянуть в будущее
Оригинальное название: Ten Ways to See into the Future
Режиссер / Телекомпания: Discovery Communications
Год выпуска: 2005
Жанр: Документальный
Описание:
Есть ли способы увидеть будущее? В истории существуют множество примеров людей, которые утверждали, что нашли способ предсказывать предстоящие события. Но даже если предсказания будущего возможны, хотим ли мы на самом деле знать, что произойдет? Что мы почувствуем, если увидим в грядущем плохое?
Продолжительность: 00:49:03
Перевод: Двуголосый закадровый, профессиональный
Видеокодек: Xvid
Битрейт видео: ~1600 Кбит/с
Размер кадра: 704x480
Качество видео: SATRip
Аудиокодек: MP3,2ch
Битрейт аудио: 128 Кбит/с

MI:

Общее
Полное имя : D:\upload\10 способов заглянуть в будущее.2005.SATRip.avi
Формат : AVI
Формат/Информация : Audio Video Interleave
Размер файла : 610 Мбайт
Продолжительность : 49 м.
Общий поток : 1738 Кбит/сек
Программа кодирования : VirtualDubMod 1.5.10.3 | www.virtualdub-fr.org || (build 2550/release)
Библиотека кодирования : VirtualDubMod build 2550/release
Видео
Идентификатор : 0
Формат : MPEG-4 Visual
Профиль формата : Advanced [email protected]
Параметр BVOP формата : 2
Параметр QPel формата : Нет
Параметр GMC формата : Без точки перехода
Параметр матрицы формата : Default (MPEG)
Идентификатор кодека : XVID
Идентификатор кодека/Подсказка : XviD
Продолжительность : 49 м.
Битрейт : 1600 Кбит/сек
Ширина : 704 пикселя
Высота : 480 пикселей
Соотношение сторон : 3:2
Частота кадров : 25,000 кадров/сек
Стандарт вещания : NTSC
Цветовое пространство : YUV
Субдискретизация насыщенности : 4:2:0
Битовая глубина : 8 бит
Тип развёртки : Прогрессивная
Метод сжатия : С потерями
Бит/(Пиксели*Кадры) : 0.189
Размер потока : 562 Мбайт (92%)
Библиотека кодирования : XviD 1.2.1 (UTC 2008-12-04)
Аудио
Идентификатор : 1
Формат : MPEG Audio
Версия формата : Version 1
Профиль формата : Layer 3
Идентификатор кодека : 55
Идентификатор кодека/Подсказка : MP3
Продолжительность : 49 м.
Вид битрейта : Постоянный
Битрейт : 128 Кбит/сек
Каналы : 2 канала
Частота : 48,0 КГц
Метод сжатия : С потерями
Размер потока : 44,9 Мбайт (7%)
Выравнивание : Соединение по промежуткам
Продолжительность промежутка : 40 мс. (1,00 видеокадр)
Время предзагрузки промежутка : 504 мс.
Библиотека кодирования : LAME3.99r
Настройки программы : -m s -V 4 -q 0 -lowpass 17 -b 128
Скриншоты:
                   
Время раздачи: 02.00х18.00 мск.
Other forum [Profile] [PM]
Display posts from previous:    
Reply to topic

The time now is: Today 23:35

All times are GMT + 3 Hours



You cannot post new topics in this forum
You cannot reply to topics in this forum
You cannot edit your posts in this forum
You cannot delete your posts in this forum
You cannot vote in polls in this forum
You cannot attach files in this forum
You cannot download files in this forum