Today is a free download without charge Download

В хлам / Smashed (Джеймс Понсольдт / James Ponsoldt) [2012, США, драма, комедия, BDRip 720p] MVO + Original (Eng) + Subs (Eng, Ukr)

Reply to topic
 
Author
Message

Omen ®

Longevity: 8 years 5 months

Posts: 181087

Торрент-статистика

Post 09-May-2013 07:51

[Quote]

В хламSmashed- Страна: США
Жанр: драма, комедия
Год выпуска: 2012
Продолжительность: 01:21:06-Перевод: Профессиональный (многоголосый, закадровый)
Оригинальная аудиодорожка: английский
Субтитры: английские, украинские
Режиссер: Джеймс Понсольдт / James Ponsoldt
В ролях: Мэри Элизабет Уинстэд, Аарон Пол, Ник Офферман, Меган Маллалли, Октавия Спенсер, Мэри Кэй Плэйс, Кайл Галлнер, Маккензи Дэвис, Бри Тёрнер, Брэд Картер, Баррет Шулер, Рене Ривера-Описание: Кейт и Чарли - молодожены, чей союз построен на обоюдной любви к музыке, веселью и... алкоголю. Особенно к алкоголю. Когда из-за губительного пристрастия у Кейт начинаются неприятности, она решает обратиться за квалифицированной помощью.-


MPAA: R - Лицам до 17 лет обязательно присутствие взрослого-

Доп. Информация

Сценарий: Сьюзэн Арден Бурк / Susan Burke, Джеймс Понсольдт / James Ponsoldt
Продюсер: Дженнифер Кочис / Jennifer Cochis, Джонатан Шварц / Jonathan Schwartz, Андреа Сперлинг / Andrea Sperling, Alishe Beardeaux, Стефани Мёре / Stephanie Meurer
Оператор: Тобиас Датум / Tobias Datum
Композитор: Энди Кабик / Andy Cabic, Эрик Д. Джонсон / Eric D. Johnson
Бюджет: $500 000
Сборы в США: $376 597
Мировая премьера: 22 января 2012
Релиз на DVD: 12 марта 2013, «Columbia/Sony»
-Качество: BDRip 720p
Контейнер: MKV
Видео: AVC, 1280x692 (1.850), 5250 kbps, 23,976 fps, 0,247 bpp
Аудио №1: русский / DTS / 5.1 / 48 kHz / 1510 kbps / 16 bit ||
Аудио №2: английский / DTS / 5.1 / 48 kHz / 1510 kbps / 16 bit
Аудио №3: английский / AC3 / 2.0 / 48 kHz / 192 kbps / 16 bit
Формат субтитров: softsub (SRT)
Навигация по главам: есть-

Знаете ли Вы, что...

  • Фильм был снят за 19 дней.

Media Info

General
Unique ID : 212663709563548320383337889660065409628 (0x9FFD8A66F17F11C29B6D1780DC15EA5C)
Complete name : C:\Smashed.2012.BDRemux.1080p.HDTracker\Smashed.2012.BDRip.720p.mkv
Format : Matroska
Format version : Version 2
File size : 4.79 GiB
Duration : 1h 21mn
Overall bit rate : 8 463 Kbps
Encoded date : UTC 2013-04-30 20:23:37
Writing application : mkvmerge v5.8.0 ('No Sleep / Pillow') built on Sep 2 2012 15:37:04
Writing library : libebml v1.2.3 + libmatroska v1.3.0
Video
ID : 1
Format : AVC
Format/Info : Advanced Video Codec
Format profile : [email protected]
Format settings, CABAC : Yes
Format settings, ReFrames : 8 frames
Codec ID : V_MPEG4/ISO/AVC
Duration : 1h 21mn
Bit rate : 5 250 Kbps
Width : 1 280 pixels
Height : 692 pixels
Display aspect ratio : 1.850
Frame rate : 23.976 fps
Color space : YUV
Chroma subsampling : 4:2:0
Bit depth : 8 bits
Scan type : Progressive
Bits/(Pixel*Frame) : 0.247
Stream size : 2.88 GiB (60%)
Writing library : x264 core 130 r2273 b3065e6
Encoding settings : cabac=1 / ref=9 / deblock=1:-1:-1 / analyse=0x3:0x113 / me=umh / subme=10 / psy=1 / psy_rd=1.00:0.15 / mixed_ref=1 / me_range=48 / chroma_me=1 / trellis=2 / 8x8dct=1 / cqm=0 / deadzone=21,11 / fast_pskip=0 / chroma_qp_offset=-3 / threads=12 / lookahead_threads=3 / sliced_threads=0 / nr=0 / decimate=0 / interlaced=0 / bluray_compat=0 / constrained_intra=0 / bframes=11 / b_pyramid=1 / b_adapt=2 / b_bias=0 / direct=3 / weightb=1 / open_gop=0 / weightp=2 / keyint=250 / keyint_min=24 / scenecut=40 / intra_refresh=0 / rc_lookahead=40 / rc=2pass / mbtree=1 / bitrate=5250 / ratetol=1.0 / qcomp=0.60 / qpmin=10 / qpmax=51 / qpstep=4 / cplxblur=20.0 / qblur=0.5 / vbv_maxrate=50000 / vbv_bufsize=62500 / nal_hrd=none / ip_ratio=1.40 / aq=2:1.00
Language : English
Default : Yes
Forced : No
Audio #1
ID : 2
Format : DTS
Format/Info : Digital Theater Systems
Codec ID : A_DTS
Duration : 1h 21mn
Bit rate mode : Constant
Bit rate : 1 510 Kbps
Channel(s) : 6 channels
Channel positions : Front: L C R, Side: L R, LFE
Sampling rate : 48.0 KHz
Bit depth : 16 bits
Compression mode : Lossy
Stream size : 876 MiB (18%)
Title : многоголосый закадровый
Language : Russian
Default : Yes
Forced : Yes
Audio #2
ID : 3
Format : DTS
Format/Info : Digital Theater Systems
Codec ID : A_DTS
Duration : 1h 21mn
Bit rate mode : Constant
Bit rate : 1 510 Kbps
Channel(s) : 6 channels
Channel positions : Front: L C R, Side: L R, LFE
Sampling rate : 48.0 KHz
Bit depth : 16 bits
Compression mode : Lossy
Stream size : 876 MiB (18%)
Title : English
Language : English
Default : No
Forced : No
Audio #3
ID : 4
Format : AC-3
Format/Info : Audio Coding 3
Format profile : Dolby Digital
Mode extension : CM (complete main)
Codec ID : A_AC3
Duration : 1h 21mn
Bit rate mode : Constant
Bit rate : 192 Kbps
Channel(s) : 2 channels
Channel positions : Front: L R
Sampling rate : 48.0 KHz
Bit depth : 16 bits
Compression mode : Lossy
Stream size : 111 MiB (2%)
Title : comment
Language : English
Default : No
Forced : No
Text #1
ID : 5
Format : UTF-8
Codec ID : S_TEXT/UTF8
Codec ID/Info : UTF-8 Plain Text
Language : English
Default : No
Forced : No
Text #2
ID : 6
Format : UTF-8
Codec ID : S_TEXT/UTF8
Codec ID/Info : UTF-8 Plain Text
Language : Ukrainian
Default : No
Forced : No
Menu
00:00:00.000 : :Chapter 01
00:07:08.928 : :Chapter 02
00:14:22.486 : :Chapter 03
00:19:19.867 : :Chapter 04
00:23:37.207 : :Chapter 05
00:27:38.489 : :Chapter 06
00:32:14.140 : :Chapter 07
00:36:15.464 : :Chapter 08
00:40:01.107 : :Chapter 09
00:43:55.007 : :Chapter 10
00:48:45.505 : :Chapter 11
00:50:50.714 : :Chapter 12
00:54:59.421 : :Chapter 13
00:59:33.653 : :Chapter 14
01:05:20.583 : :Chapter 15
01:10:56.085 : :Chapter 16

х264

x264 [info]: frame I:730 Avg QP:12.54 size:154414
x264 [info]: frame P:27148 Avg QP:15.35 size: 60635
x264 [info]: frame B:88810 Avg QP:17.78 size: 16152
x264 [info]: consecutive B-frames: 2.8% 4.7% 9.3% 23.4% 16.0% 25.7% 7.5% 7.1% 1.2% 0.4% 0.4% 1.5%
x264 [info]: mb I I16..4: 15.1% 62.8% 22.1%
x264 [info]: mb P I16..4: 2.0% 10.3% 3.0% P16..4: 31.5% 27.9% 17.2% 0.0% 0.0% skip: 8.1%
x264 [info]: mb B I16..4: 0.1% 0.8% 0.3% B16..8: 38.7% 14.4% 3.9% direct: 5.8% skip:36.0% L0:41.6% L1:43.2% BI:15.2%
x264 [info]: 8x8 transform intra:67.1% inter:46.6%
x264 [info]: direct mvs spatial:99.2% temporal:0.8%
x264 [info]: coded y,uvDC,uvAC intra: 85.3% 86.3% 76.0% inter: 26.2% 24.1% 14.7%
x264 [info]: i16 v,h,dc,p: 23% 13% 19% 45%
x264 [info]: i8 v,h,dc,ddl,ddr,vr,hd,vl,hu: 17% 11% 12% 8% 10% 12% 10% 11% 10%
x264 [info]: i4 v,h,dc,ddl,ddr,vr,hd,vl,hu: 27% 12% 6% 7% 11% 11% 9% 9% 8%
x264 [info]: i8c dc,h,v,p: 47% 19% 19% 15%
x264 [info]: Weighted P-Frames: Y:2.8% UV:1.0%
x264 [info]: ref P L0: 59.4% 8.6% 13.9% 6.1% 4.3% 3.2% 2.6% 1.7% 0.2% 0.0%
x264 [info]: ref B L0: 84.3% 7.7% 3.4% 1.8% 1.3% 1.1% 0.5%
x264 [info]: ref B L1: 94.0% 6.0%
x264 [info]: kb/s:5249.04

Скриншоты

Other forum [Profile] [PM]
Display posts from previous:    
Reply to topic

The time now is: Today 11:49

All times are GMT + 3 Hours



You cannot post new topics in this forum
You cannot reply to topics in this forum
You cannot edit your posts in this forum
You cannot delete your posts in this forum
You cannot vote in polls in this forum
You cannot attach files in this forum
You cannot download files in this forum