Today is a free download without charge Download

Ветер, который качает вереск / The Wind That Shakes the Barley (Кен Лоуч / Ken Loach) [2006, Ирландия, Великобритания, драма, военный, история, WEB-DL 720p] MVO + DVO + 2x Sub (Rus, Eng) + Original (Eng, Gle, Lat)

Reply to topic
 
Author
Message

Omen ®

Longevity: 8 years 5 months

Posts: 181087

Торрент-статистика

Post 09-May-2013 07:51

[Quote]

Ветер, который качает вереск / The Wind That Shakes the Barley
Страна: Ирландия, Великобритания, Германия, Франция, Италия, Испания, Швейцария, Бельгия
Жанр: драма, военный, история
Год выпуска: 2006
Продолжительность: 02:07:01
Перевод 1: Профессиональный (многоголосый закадровый)
Перевод 2: Профессиональный (двухголосый закадровый)
Cубтитры: русские, английские
Оригинальная аудиодорожка: English, Irish Gaelic, Latin
-
Режиссер: Кен Лоуч / Ken Loach
В ролях: Киллиан Мёрфи, Падрейк Делани, Лиам Каннингэм, Орла Фицджералд, Мэри О’Риордан, Мэри Мерфи, Лоуренс Бэрри, Дэмиен Кирни, Фрэнк Бурк, Майлс Хорган
-
Описание: Начало XX века. Ирландия охвачена волнениями. Рабочие и крестьяне ведут отчаянную борьбу за независимость с британскими частями, призванными подавить бунт в Ирландии. Чувство долга и любовь к родине побуждают Дамиена оставить успешную карьеру врача и вместе со своим братом Тедди вступить в жестокую схватку за свободу.
После первых побед повстанцев британские власти приходят к выводу, что кровопролитие пора прекратить. Но страну ждет новое испытание — гражданская война, когда родные братья, еще недавно сражавшиеся бок о бок, оказываются по разные стороны баррикад…

Тип релиза: WEB-DL 720p
Контейнер: MKV
Видео: H264 / NTSC 16:9 / 1280x720 (1,78:1) / 4029 kbps / 23,976 fps / 0.182 bit/pixel / [email protected]
Аудио 1: Russian / AC3 / 48 kHz / 5.1 Ch / 448 kbps / 16 bit / MVO
Аудио 2: Russian / AC3 / 48 kHz / 2 Ch / 192 kbps / 16 bit / DVO
Аудио 3: English, Irish Gaelic, Latin / AC3 / 48 kHz / 5.1 Ch / 384 kbps / 16 bit / Original
Формат субтитров: softsub (SRT)
Навигация по главам: есть

MediaInfo

Общее
Уникальный идентификатор : 191876476990240935058382016585801434805 (0x905A10B544286AA7B479E17AB60886B5)
Полное имя : W:\WEB-DL 720p\The Wind That Shakes the Barley.2006.WEB-DL.720p.mkv
Формат : Matroska
Версия формата : Version 4 / Version 2
Размер файла : 4,57 Гбайт
Продолжительность : 2 ч. 7 м.
Общий поток : 5155 Кбит/сек
Дата кодирования : UTC 2013-05-08 17:47:33
Программа кодирования : mkvmerge v6.2.0 ('Promised Land') built on Apr 28 2013 12:22:01
Библиотека кодирования : libebml v1.3.0 + libmatroska v1.4.0
Видео
Идентификатор : 1
Формат : AVC
Формат/Информация : Advanced Video Codec
Профиль формата : [email protected]
Параметр CABAC формата : Нет
Параметр ReFrames формата : 2 кадра
Идентификатор кодека : V_MPEG4/ISO/AVC
Продолжительность : 2 ч. 7 м.
Битрейт : 4029 Кбит/сек
Ширина : 1280 пикселей
Высота : 720 пикселей
Соотношение сторон : 16:9
Режим частоты кадров : Постоянный
Частота кадров : 23,976 кадра/сек
Цветовое пространство : YUV
Субдискретизация насыщенности : 4:2:0
Битовая глубина : 8 бит
Тип развёртки : Прогрессивная
Бит/(Пиксели*Кадры) : 0.182
Размер потока : 3,57 Гбайт (78%)
Язык : English
Default : Да
Forced : Нет
Основные цвета : BT.709
Характеристики трансфера : BT.709
Коэффициенты матрицы : BT.709
Аудио #1
Идентификатор : 2
Формат : AC-3
Формат/Информация : Audio Coding 3
Расширение режима : CM (complete main)
Параметр Endianness формата : Big
Идентификатор кодека : A_AC3
Продолжительность : 2 ч. 7 м.
Вид битрейта : Постоянный
Битрейт : 448 Кбит/сек
Каналы : 6 каналов
Расположение каналов : Front: L C R, Side: L R, LFE
Частота : 48,0 КГц
Битовая глубина : 16 бит
Метод сжатия : С потерями
Размер потока : 407 Мбайт (9%)
Заголовок : MVO
Язык : Russian
Default : Да
Forced : Нет
Аудио #2
Идентификатор : 3
Формат : AC-3
Формат/Информация : Audio Coding 3
Расширение режима : CM (complete main)
Параметр Endianness формата : Big
Идентификатор кодека : A_AC3
Продолжительность : 2 ч. 7 м.
Вид битрейта : Постоянный
Битрейт : 192 Кбит/сек
Каналы : 2 канала
Расположение каналов : Front: L R
Частота : 48,0 КГц
Битовая глубина : 16 бит
Метод сжатия : С потерями
Размер потока : 174 Мбайт (4%)
Заголовок : DVO
Язык : Russian
Default : Нет
Forced : Нет
Аудио #3
Идентификатор : 4
Формат : AC-3
Формат/Информация : Audio Coding 3
Расширение режима : CM (complete main)
Параметр Endianness формата : Big
Идентификатор кодека : A_AC3
Продолжительность : 2 ч. 7 м.
Вид битрейта : Постоянный
Битрейт : 384 Кбит/сек
Каналы : 6 каналов
Расположение каналов : Front: L C R, Side: L R, LFE
Частота : 48,0 КГц
Битовая глубина : 16 бит
Метод сжатия : С потерями
Размер потока : 349 Мбайт (7%)
Заголовок : Original
Язык : English
Default : Нет
Forced : Нет
Текст #1
Идентификатор : 5
Формат : UTF-8
Идентификатор кодека : S_TEXT/UTF8
Идентификатор кодека/Информация : UTF-8 Plain Text
Заголовок : RUS / DVD
Язык : Russian
Default : Нет
Forced : Нет
Текст #2
Идентификатор : 6
Формат : UTF-8
Идентификатор кодека : S_TEXT/UTF8
Идентификатор кодека/Информация : UTF-8 Plain Text
Заголовок : Original
Язык : English
Default : Нет
Forced : Нет
Меню
00:00:00.000 : en:Opening Titles
00:08:41.000 : en:Funeral
00:11:42.000 : en:The Oath
00:15:17.000 : en:Field Training
00:20:17.000 : en:Final Warning
00:25:21.000 : en:Manhunt
00:29:42.000 : en:Captured
00:35:37.000 : en:Singing Support
00:43:07.000 : en:Escape
00:50:38.000 : en:Death March
00:56:59.000 : en:Republican Court
01:05:07.000 : en:Ambush
01:16:02.000 : en:Home Invasion
01:22:43.000 : en:Celebration
01:34:11.000 : en:Exit Parade
01:39:22.000 : en:Telegram From Dublin
01:48:48.000 : en:Weapons Depot
01:52:40.000 : en:Final Visitor
02:01:55.000 : en:Last Letter
02:04:30.000 : en:End Credits

Скриншоты

Other forum [Profile] [PM]
Display posts from previous:    
Reply to topic

The time now is: Today 10:25

All times are GMT + 3 Hours



You cannot post new topics in this forum
You cannot reply to topics in this forum
You cannot edit your posts in this forum
You cannot delete your posts in this forum
You cannot vote in polls in this forum
You cannot attach files in this forum
You cannot download files in this forum