Today is a free download without charge Download

Discovery: Золото джунглей (7 выпусков)/ Discovery: Jungle Gold (2013) SATRip

Reply to topic
 
Author
Message

p2000s ®

Gender:

Longevity: 7 years 4 months

Posts: 89

Location: деактивирован, причина: последнее посещение 2017-11-29. darkos_bot 14.06.2019г

Торрент-статистика

Post 09-May-2013 06:03

[Quote]

Discovery: Золото джунглей (7 выпусков)/ Discovery: Jungle Gold (2013) SATRip - Русское название: Discovery: Золото джунглей
Оригинальное название: Discovery: Jungle Gold
Режиссер / Телекомпания: Discovery Channel
Год выпуска: 2013
Жанр: Документальный
Описание:
Новая телепрограмма «Золото джунглей» расскажет нам о жизни Скотта Лому и Джорджа Райта, которые несколько лет назад были строительными магнатами. Но они так были зацыклены на следующей операции, что даже не смогли заметить плохих признаков и обанкротились из-за кризиса 2008 года. Под угрозой оказалось будущее их семей. Спеша изменить данную ситуацию, они поехали из Юты в джунгли Ганы (Западная Африка). Золотые запасы в этой стране на столько велики, что даже золотоискатели-аматоры с примитивным оборудованием могут сколотить целое состояние. Купив 30 гектаров богатой на золото территории, они живут надеждой разбогатеть. Добыть золото не очень то просто. Сберечь его в опасных джунглях Ганы и выжить - еще сложнее. Узнайте, как Скотт и Джордж поддают риску свои жизни и не смотря на поломки оборудования, территориальные споры, конкуренцию и борьбу с самими джунглями, для того чтобы в конце-концов вернуть прежний уровень жизни.
Продолжительность: 7 х 00:43:58
Перевод: Одноголосый закадровый, профессиональный
Видеокодек: Xvid
Битрейт видео: ~1247 Кбит/сек; 1500 Кбит/сек
Размер кадра: 768x576; 704х396; 720х400; 854х480
Качество видео: SATRip
Аудиокодек: MP3, 2 канала
Битрейт аудио: 256 Кбит/сек

Описание серий

1 - серия
Аэропорт Кумаси, Гана. Скотт Лому и Джордж Райт только-что прbбыли в Гану. Они пересекли полмира в поисках того, что изменит их жизни навсегда. Они здесь ради золота. Сейчас в Гане разворачивается настоящая золотая лихорадка. Искатели со всего мира стекаются сюда в поисках богатства. Все хотят золото - Скотт и Джордж просто хотят урвать свой кусок. Тот участок земли, который им выделили является решением всех их проблем. И они с нетерпением ждут начала работы.
2 - серия
Глубоко в джунглях Ганы Джордж Райт и Скотт Лому добрались до своего рудника. Единственный человек, который может защитить их - это охранник Эрнест. Как только они приступили к роботе появился их сосед. У него при себе мачете и он в ярости.
3 - серия
Джордж Райт и съемочная группа ночуют у золотого прииска. Джордж охраняет его от незваных гостей. Кажется кто-то ходит у экскаватора. Никто, кроме его, не имеет право ходить по его прииску. Но вдруг раздались выстрелы. Джордж не понял откуда и приказал ребятам бежать и прятаться.
4 - серия
Скотт Лому везет экскаватор на свою золотую шахту в Романсо. Но через пару часов Скотта тормозят у заграждения. Деревенский житель идет к машине с мачете. Бригадир Виктор пытается его обезоружить. Скотт никуда не поедет...
5 - серия
Джордж находится на тщательно охраняемой и закрытой территории. Он пытается заключить сделку с крупным дилером золота в Гане. Возможная цена сделки - миллионы долларов. Встречу снимают на скрытую камеру. Но спустя 20 минут после начала переговоров дилеру позвонили. Машину съемочной группы засекли. У Джорджа больше нет прикрытия. Ему разрешили уйти, но он все еще в опасности.
6 - серия
Участок Ромасо, Гана. Над золотоносным участком Ромасо в западной Африке встает рассвет. Золота не было уже несколько месяцев и деловые отношения с партнерами дают трещину. Они каждый день раз за разом делают то, что делают лучше других. Они думают, что через 2 месяца смогут добывать намного больше чем 250 граммов.
7 - серия
Скотт и Джордж рискуют своими последними наличными в ходе сомнительной сделки. Скотт берет 35000 долларов что-бы встретится с контрабандистом золота. Это то, чего они так долго ждали, но Джорджу не нравится то, что Скотт отправился на встречу один. Они смогли заработать 40000 долларов за 20 минут. Но через несколько минут все меняется.

Внимание! Раздача ведётся путём добавления новых серий. Описание процедуры обновления торрента

Внимание! Раздача ведётся путём добавления новых серий; при каждом добавлении создётся новый торрент. Чтобы начать докачку новой серии, пользователям необходимо сделать следующее:
(1) остановить скачивание,
(2) удалить старый торрент у себя из клиента (старые серии удалять не надо),
(3) скачать новый торрент и запустить его у себя в клиенте вместо старого, при этом указать клиенту путь в старую папку куда и должно происходить скачивание новых серий.
Ваш клиент при этом должен произвести хеширование (проверку) старой папки (если не производит сам - помогите ему сделать это), и будет докачивать только те серии которых у вас ещё нет. Старые серии при этом не удаляются, а продолжают раздаваться!
Eсли вы уже удалили старые серии, то предотвратить повторную закачку старых серий можно, отжав галочку в соответсвующих местах при запуске нового торрента. По возможности, желательно не удалять старые серии как можно дольше, чтобы релизёр не только продолжал раздавать старые серии, но и смог сконцентрироваться на новых.
Скриншоты:
       
       

скриншоты

       
       
       
       
       
       
       
       
       
       

MediaInfo

Общее
Полное имя : H:\ДОКУМЕНТАЛКИ\Золото джунглей\Золото джунглей_(1).avi
Формат : AVI
Формат/Информация : Audio Video Interleave
Размер файла : 557 Мбайт
Продолжительность : 44 м.
Общий поток : 1769 Кбит/сек
Программа кодирования : Lavf52.94.0
Видео
Идентификатор : 0
Формат : MPEG-4 Visual
Профиль формата : [email protected]
Параметр BVOP формата : Нет
Параметр QPel формата : Нет
Параметр GMC формата : Без точки перехода
Параметр матрицы формата : Default (H.263)
Идентификатор кодека : XVID
Идентификатор кодека/Подсказка : XviD
Продолжительность : 44 м.
Битрейт : 1500 Кбит/сек
Ширина : 768 пикселей
Высота : 576 пикселей
Соотношение сторон : 4:3
Частота кадров : 25,000 кадров/сек
Цветовое пространство : YUV
Субдискретизация насыщенности : 4:2:0
Битовая глубина : 8 бит
Тип развёртки : Прогрессивная
Метод сжатия : С потерями
Бит/(Пиксели*Кадры) : 0.136
Размер потока : 472 Мбайт (85%)
Библиотека кодирования : XviD 1.2.1 (UTC 2008-12-04)
Аудио
Идентификатор : 1
Формат : MPEG Audio
Версия формата : Version 1
Профиль формата : Layer 3
Режим : Joint stereo
Расширение режима : MS Stereo
Идентификатор кодека : 55
Идентификатор кодека/Подсказка : MP3
Продолжительность : 44 м.
Вид битрейта : Постоянный
Битрейт : 256 Кбит/сек
Каналы : 2 канала
Частота : 48,0 КГц
Метод сжатия : С потерями
Размер потока : 80,6 Мбайт (14%)
Выравнивание : Соединение по промежуткам
Продолжительность промежутка : 24 мс. (0,60 видеокадр)
Общее
Полное имя : H:\ДОКУМЕНТАЛКИ\Золото джунглей\Jungle Gold s01e02 (Hell and High Water).avi
Формат : AVI
Формат/Информация : Audio Video Interleave
Размер файла : 558 Мбайт
Продолжительность : 44 м.
Общий поток : 1768 Кбит/сек
Программа кодирования : Lavf52.94.0
Видео
Идентификатор : 0
Формат : MPEG-4 Visual
Профиль формата : [email protected]
Параметр BVOP формата : Нет
Параметр QPel формата : Нет
Параметр GMC формата : Без точки перехода
Параметр матрицы формата : Default (H.263)
Идентификатор кодека : XVID
Идентификатор кодека/Подсказка : XviD
Продолжительность : 44 м.
Битрейт : 1499 Кбит/сек
Ширина : 704 пикселя
Высота : 396 пикселей
Соотношение сторон : 16:9
Частота кадров : 25,000 кадров/сек
Цветовое пространство : YUV
Субдискретизация насыщенности : 4:2:0
Битовая глубина : 8 бит
Тип развёртки : Прогрессивная
Метод сжатия : С потерями
Бит/(Пиксели*Кадры) : 0.215
Размер потока : 473 Мбайт (85%)
Библиотека кодирования : XviD 1.2.1 (UTC 2008-12-04)
Аудио
Идентификатор : 1
Формат : MPEG Audio
Версия формата : Version 1
Профиль формата : Layer 3
Режим : Joint stereo
Расширение режима : MS Stereo
Идентификатор кодека : 55
Идентификатор кодека/Подсказка : MP3
Продолжительность : 44 м.
Вид битрейта : Постоянный
Битрейт : 256 Кбит/сек
Каналы : 2 канала
Частота : 48,0 КГц
Метод сжатия : С потерями
Размер потока : 80,8 Мбайт (14%)
Выравнивание : Соединение по промежуткам
Продолжительность промежутка : 24 мс. (0,60 видеокадр)
Библиотека кодирования : LAME3.98.4ЄЄЄЄ
Общее
Полное имя : H:\ДОКУМЕНТАЛКИ\Золото джунглей\Jungle Gold s01e03 (Shots Fired).avi
Формат : AVI
Формат/Информация : Audio Video Interleave
Размер файла : 556 Мбайт
Продолжительность : 44 м.
Общий поток : 1764 Кбит/сек
Программа кодирования : Lavf52.94.0
Видео
Идентификатор : 0
Формат : MPEG-4 Visual
Профиль формата : [email protected]
Параметр BVOP формата : Нет
Параметр QPel формата : Нет
Параметр GMC формата : Без точки перехода
Параметр матрицы формата : Default (H.263)
Идентификатор кодека : XVID
Идентификатор кодека/Подсказка : XviD
Продолжительность : 44 м.
Битрейт : 1496 Кбит/сек
Ширина : 704 пикселя
Высота : 396 пикселей
Соотношение сторон : 16:9
Частота кадров : 25,000 кадров/сек
Цветовое пространство : YUV
Субдискретизация насыщенности : 4:2:0
Битовая глубина : 8 бит
Тип развёртки : Прогрессивная
Метод сжатия : С потерями
Бит/(Пиксели*Кадры) : 0.215
Размер потока : 471 Мбайт (85%)
Библиотека кодирования : XviD 1.2.1 (UTC 2008-12-04)
Аудио
Идентификатор : 1
Формат : MPEG Audio
Версия формата : Version 1
Профиль формата : Layer 3
Режим : Joint stereo
Идентификатор кодека : 55
Идентификатор кодека/Подсказка : MP3
Продолжительность : 44 м.
Вид битрейта : Постоянный
Битрейт : 256 Кбит/сек
Каналы : 2 канала
Частота : 48,0 КГц
Метод сжатия : С потерями
Размер потока : 80,6 Мбайт (15%)
Выравнивание : Соединение по промежуткам
Продолжительность промежутка : 24 мс. (0,60 видеокадр)
Общее
Полное имя : H:\ДОКУМЕНТАЛКИ\Золото джунглей\Золото джунглей_(4).avi
Формат : AVI
Формат/Информация : Audio Video Interleave
Размер файла : 480 Мбайт
Продолжительность : 44 м.
Общий поток : 1517 Кбит/сек
Программа кодирования : Lavf52.94.0
Примечание : www.freemake.com
Видео
Идентификатор : 0
Формат : MPEG-4 Visual
Профиль формата : [email protected]
Параметр BVOP формата : Нет
Параметр QPel формата : Нет
Параметр GMC формата : Без точки перехода
Параметр матрицы формата : Default (H.263)
Идентификатор кодека : XVID
Идентификатор кодека/Подсказка : XviD
Продолжительность : 44 м.
Битрейт : 1247 Кбит/сек
Ширина : 720 пикселей
Высота : 400 пикселей
Соотношение сторон : 16:9
Частота кадров : 30,000 кадров/сек
Цветовое пространство : YUV
Субдискретизация насыщенности : 4:2:0
Битовая глубина : 8 бит
Тип развёртки : Прогрессивная
Метод сжатия : С потерями
Бит/(Пиксели*Кадры) : 0.144
Размер потока : 395 Мбайт (82%)
Библиотека кодирования : XviD 1.2.1 (UTC 2008-12-04)
Аудио
Идентификатор : 1
Формат : MPEG Audio
Версия формата : Version 1
Профиль формата : Layer 3
Режим : Joint stereo
Идентификатор кодека : 55
Идентификатор кодека/Подсказка : MP3
Продолжительность : 44 м.
Вид битрейта : Постоянный
Битрейт : 256 Кбит/сек
Каналы : 2 канала
Частота : 48,0 КГц
Метод сжатия : С потерями
Размер потока : 81,0 Мбайт (17%)
Выравнивание : Соединение по промежуткам
Продолжительность промежутка : 24 мс. (0,72 видеокадр)
Библиотека кодирования : LAME3.98.4
Общее
Полное имя : H:\ДОКУМЕНТАЛКИ\Золото джунглей\Золото джунглей_(5).avi
Формат : AVI
Формат/Информация : Audio Video Interleave
Размер файла : 558 Мбайт
Продолжительность : 44 м.
Общий поток : 1769 Кбит/сек
Программа кодирования : Lavf52.94.0
Видео
Идентификатор : 0
Формат : MPEG-4 Visual
Профиль формата : [email protected]
Параметр BVOP формата : Нет
Параметр QPel формата : Нет
Параметр GMC формата : Без точки перехода
Параметр матрицы формата : Default (H.263)
Идентификатор кодека : XVID
Идентификатор кодека/Подсказка : XviD
Продолжительность : 44 м.
Битрейт : 1500 Кбит/сек
Ширина : 854 пикселя
Высота : 480 пикселей
Соотношение сторон : 16:9
Частота кадров : 25,000 кадров/сек
Цветовое пространство : YUV
Субдискретизация насыщенности : 4:2:0
Битовая глубина : 8 бит
Тип развёртки : Прогрессивная
Метод сжатия : С потерями
Бит/(Пиксели*Кадры) : 0.146
Размер потока : 474 Мбайт (85%)
Библиотека кодирования : XviD 1.2.1 (UTC 2008-12-04)
Аудио
Идентификатор : 1
Формат : MPEG Audio
Версия формата : Version 1
Профиль формата : Layer 3
Режим : Joint stereo
Расширение режима : MS Stereo
Идентификатор кодека : 55
Идентификатор кодека/Подсказка : MP3
Продолжительность : 44 м.
Вид битрейта : Постоянный
Битрейт : 256 Кбит/сек
Каналы : 2 канала
Частота : 48,0 КГц
Метод сжатия : С потерями
Размер потока : 80,8 Мбайт (14%)
Выравнивание : Соединение по промежуткам
Продолжительность промежутка : 24 мс. (0,60 видеокадр)
Библиотека кодирования : LAME3.98.4
Общее
Полное имя : H:\ДОКУМЕНТАЛКИ\Золото джунглей\Золото джунглей_(6).avi
Формат : AVI
Формат/Информация : Audio Video Interleave
Размер файла : 560 Мбайт
Продолжительность : 44 м.
Общий поток : 1766 Кбит/сек
Программа кодирования : Lavf52.94.0
Видео
Идентификатор : 0
Формат : MPEG-4 Visual
Профиль формата : [email protected]
Параметр BVOP формата : Нет
Параметр QPel формата : Нет
Параметр GMC формата : Без точки перехода
Параметр матрицы формата : Default (H.263)
Идентификатор кодека : XVID
Идентификатор кодека/Подсказка : XviD
Продолжительность : 44 м.
Битрейт : 1497 Кбит/сек
Ширина : 854 пикселя
Высота : 480 пикселей
Соотношение сторон : 16:9
Частота кадров : 25,000 кадров/сек
Цветовое пространство : YUV
Субдискретизация насыщенности : 4:2:0
Битовая глубина : 8 бит
Тип развёртки : Прогрессивная
Метод сжатия : С потерями
Бит/(Пиксели*Кадры) : 0.146
Размер потока : 475 Мбайт (85%)
Библиотека кодирования : XviD 1.2.1 (UTC 2008-12-04)
Аудио
Идентификатор : 1
Формат : MPEG Audio
Версия формата : Version 1
Профиль формата : Layer 3
Режим : Joint stereo
Расширение режима : MS Stereo
Идентификатор кодека : 55
Идентификатор кодека/Подсказка : MP3
Продолжительность : 44 м.
Вид битрейта : Постоянный
Битрейт : 256 Кбит/сек
Каналы : 2 канала
Частота : 48,0 КГц
Метод сжатия : С потерями
Размер потока : 81,2 Мбайт (14%)
Выравнивание : Соединение по промежуткам
Продолжительность промежутка : 24 мс. (0,60 видеокадр)
Библиотека кодирования : LAME3.98.4
Общее
Полное имя : H:\ДОКУМЕНТАЛКИ\Золото джунглей\Золото джунглей_(7).avi
Формат : AVI
Формат/Информация : Audio Video Interleave
Размер файла : 558 Мбайт
Продолжительность : 44 м.
Общий поток : 1763 Кбит/сек
Программа кодирования : Lavf52.94.0
Видео
Идентификатор : 0
Формат : MPEG-4 Visual
Профиль формата : [email protected]
Параметр BVOP формата : Нет
Параметр QPel формата : Нет
Параметр GMC формата : Без точки перехода
Параметр матрицы формата : Default (H.263)
Идентификатор кодека : XVID
Идентификатор кодека/Подсказка : XviD
Продолжительность : 44 м.
Битрейт : 1494 Кбит/сек
Ширина : 854 пикселя
Высота : 480 пикселей
Соотношение сторон : 16:9
Частота кадров : 25,000 кадров/сек
Цветовое пространство : YUV
Субдискретизация насыщенности : 4:2:0
Битовая глубина : 8 бит
Тип развёртки : Прогрессивная
Метод сжатия : С потерями
Бит/(Пиксели*Кадры) : 0.146
Размер потока : 472 Мбайт (85%)
Библиотека кодирования : XviD 1.2.1 (UTC 2008-12-04)
Аудио
Идентификатор : 1
Формат : MPEG Audio
Версия формата : Version 1
Профиль формата : Layer 3
Режим : Joint stereo
Расширение режима : MS Stereo
Идентификатор кодека : 55
Идентификатор кодека/Подсказка : MP3
Продолжительность : 44 м.
Вид битрейта : Постоянный
Битрейт : 256 Кбит/сек
Каналы : 2 канала
Частота : 48,0 КГц
Метод сжатия : С потерями
Размер потока : 81,0 Мбайт (15%)
Выравнивание : Соединение по промежуткам
Продолжительность промежутка : 24 мс. (0,60 видеокадр)
Библиотека кодирования : LAME3.98.4
Время раздачи: с 9:00 до 21:00 по МСК
Other forum [Profile] [PM]
Display posts from previous:    
Reply to topic

The time now is: Today 17:59

All times are GMT + 3 Hours



You cannot post new topics in this forum
You cannot reply to topics in this forum
You cannot edit your posts in this forum
You cannot delete your posts in this forum
You cannot vote in polls in this forum
You cannot attach files in this forum
You cannot download files in this forum