Today is a free download without charge Download

VA - 100 Best Jazz (6CD Box-set) (серия "Best 100") (2008) [MP3|320 кб/с]<Jazz>

Reply to topic
 
Author
Message

UndegraundMen ®

Longevity: 8 years 11 months

Posts: 25145

Торрент-статистика

Post 09-May-2013 00:05

[Quote]

VA - 100 Best Jazz (6CD Box-set) (серия "Best 100") (2008)- Производитель: EMI Classics
Год: 2008
Жанр: Jazz
Продолжительность: 06:33:03
Кодек: MP3
Битрейт: 320 кб/с
Тип битрейта: CBR
Трек лист:
CD1 - Vocals
Продолжительность: 01:05:22
01. Julie Lodon - I left my heart in San Francisco (2:49)
02. June Christy - Something cool (4:20)
03. Chet Baker - My funny valentine (2:21)
04. Ella Fitzgerald - Misty blue (2:29)
05. Nancy Wilson - Darn that dream (2:52)
06. Jo Staford - Autumn in New York (2:42)
07. Dinah Shore - April in Paris (2:58)
08. Abbey Lincoln - Do nothing till you hear from me (2:17)
09. Mark Murphy - Day in-day out (4:00)
10. Dinah Shore - It had to be you (3:24)

Продолжение трек листа CD1 - Vocals

11. Jack Jones - Angel eyes (3:15)
12. Carmen McRae - The man I love (4:17)
13. Anie Ross - It don't mean a thing (2:09)
14. Sue Raney - Here's that rainy day (4:14)
15. Jack Teagarden - Stars fell on Alabama (3:00)
16. Billie Holiday - Blue moon (2:14)
17. Dakota Station - A foggy day (2:19)
18. Dianne Reeves - Exactly like you (5:22)
19. Lou Rawls - I ain't got nothin' but the blues (3:22)
20. Lena Horne - Something to live for (4:47)

CD2 - Swing Classics In Hi-Fi

Продолжительность: 01:08:09
01. Billy May And His Orchestra - For dancers only (2:42)
02. Benny Goodman And His Orchestra - Stampin' at the savoy (3:13)
03. Les Brown And His Orchestra - Leap frop (2:49)
04. Duke Ellington And His Orchestra - Satin doll (2:58)
05. Benny Goodman And His Orchestra - Let's dance (2:13)
06. Billy May And His Orchestra - T'ain't what you do (3:01)
07. Glen Grayand The Casa Loma Orchestra - Opus n°1 (2:58)
08. Stan Kenton And His Orchestra - Intermission riff (4:16)
09. Woody Herman And His Orcestra - Sleep (3:52)
10. Benny Goodman And His Orchestra - Jumpin' at the woodside (3:31)
11. Duke Ellington AndHis Orchestra - Harlem air shaft (3:54)
12. Harry James And His Orchestra - I'm beginning to see the light (3:07)
13. Les Brown And His Orchestra - A good man is hard to find (2:29)
14. Billy May And His Orchestra - Annie Laurie (3:07)
15. Stan Kenton And His Orchestra - The peanut vendor (4:34)
16. Glem Ray And The Casa Loma Orchestra - Come and get it (2:56)
17. Billy May And His Orchestra - Margie (3:06)
18. Les Brown And His Orchestra - I've got my love to keep me (2:48)
19. Glen Gray And The Casa Loma Orchestra - Apollo jumps (2:59)
20. Benny Goodman And His Orchestra - Sing, sing, sing (7:25)

CD3 - Latin Jazz

Продолжительность: 01:11:30
01. Stan Kenton And His Orchestrra - Machito (2:26)
02. Tadd Dameron - Jahberu (2:54)
03. James Moody & Chano Pozo - Tin tin deo (2:48)
04. Kenny Dorhan - Basheer's dream (5:00)
05. Horage Parlan - Congalegra (4:23)
06. Grant Green - Mambo inn (5:48)
07. Gerald Wilson - Paco (6:22)
08. The Jazz Crusaders - Agua dulce (5:19)
09. Clare Fischer - Favela (3:50)
10. Candido - I'm on my way (3:12)
11. Bobby Hutcherson - Oye como va (5:09)
12. Chucho Valdes - Caravan (7:01)
13. Gonzalo Rubalcaba - Contagio (6:40)
14. Ray Barretto - Dance of denial (5:52)
15. Eliane Elias - The time is now (4:40)

CD4 - Relaxing

Продолжительность: 01:06:08
01. Low Rawls & Dianne Reeves - At last (3:37)
02. The Three Sounds - Makin' whoopee (4:22)
03. Sonny Rollins - Namely you (3:22)
04. Cassandra Wilson - Time after time (4:09)
05. Wayne Shorter - Infant eyes (6:54)
06. Kurt Elling - In the winelight (6:40)
07. Herbie Hancock - Cantaloupe Island (5:30)
08. Charlie Hunter & Noran Jones - More than this (4:10)
09. Joe Henderson - Beatrice (5:39)
10. Jackie Allen - Lazy afternoon (3:54)
11. Joe Lovano - I've got the world on a string (4:20)
12. Holly Cole - Make it go away (3:58)
13. Stefon Harris & Jacky Terrasson - Dejа vu (5:11)
14. Bobby McFerrin - Don't worry be happy (4:49)

CD5 - Jazz Ballads

Продолжительность: 01:06:08
01. Coleman Hawkins - Someone to watch over me (2:48)
02. Clifford Brown - Easy living (3:44)
03. MIles Davis - It never entered my mind (4:03)
04. Jutta Hipp & Zoot Sims - Violets for your furs (6:11)
05. Benny Goodman - Moonglow (3:27)
06. George Shearing - Like someone il love (3:59)
07. Bill evans & Jim Hall - Stairway to the stars (5:40)
08. Cannonball Adderley - Dancing in the dark (4:06)
09. Dexter Gordon - I'm a fool to want you (6:45)
10. Stan Kenton And His Orchestra - Yesterdays (5:37)
11. Hank Mobley - The good life (5:12)
12. Stanley Turrentine - God bless the child (3:59)
13. Ike Quebec - Nature boy (2:45)
14. Zoot Sims - Spring can really hang you up the most (3:10)
15. Joe Lovano - Laura (4:34)

CD6 - Legends Of Jazz

Продолжительность: 00:56:18
01. Albert Ammons - Boogie woogie stomp (3:36)
02. Sidney Bechet - Summertime (4:11)
03. Meade Lux Lewis - Chicago flyer (4:00)
04. Edmond Hall's Celeste Quartet - Profoundly blue (4:10)
05. Ike Quebec - Topsy (3:03)
06. Jimmy Hamilton & The duke's Men - Blues for clarinets (4:20)
07. Babs Gonzales' Three Bps And A Bop - Lop-pow (2:42)
08. Tadd Dameron - Our delight (2:59)
09. Howard McGhree And Fats Navarro - Boperation (3:09)
10. Thelonious Monk - 'Round midnight (3:11)
11. Bud Powell - Bouncing with bud (3:06)
12. Wynton Kelly - Born to be blue (3:24)
13. Milt Jacson - Bags' groove (3:07)
14. Horage Silver - Safari (2:51)
15. Lou Danaldson - Carvin' the rock (3:58)
16. Herbie Nichols - Lady sings the blues (4:25)

mediainfo

Общее
Полное имя : D:\MEDIA\Audio\2008 - 100 Best Jazz\CD1 - Vocals\01.JULIE LODON - I left my heart in San Francisco.mp3
Формат : MPEG Audio
Размер файла : 6,46 Мбайт
Продолжительность : 2 м. 49 с.
Режим общего битрейта : Постоянный
Общий поток : 320 Кбит/сек
Альбом : BEST JAZZ 100 - Disk1 Classic Jazz Vocals
Альбом/Исполнитель : Various
Трек : I left my heart in San Francisco
Трек/Положение : 01
Исполнитель : JULIE LODON
Библиотека кодирования : LAME3.98
Аудио
Формат : MPEG Audio
Версия формата : Version 1
Профиль формата : Layer 3
Продолжительность : 2 м. 49 с.
Вид битрейта : Постоянный
Битрейт : 320 Кбит/сек
Каналы : 2 канала
Частота : 44,1 КГц
Метод сжатия : С потерями
Размер потока : 6,46 Мбайт (100%)
Библиотека кодирования : LAME3.98
Настройки программы : -m s -V 4 -q 0 -lowpass 20.5
Общее
Полное имя : D:\MEDIA\Audio\2008 - 100 Best Jazz\CD1 - Vocals\02.JUNE CHRISTY - Something cool.mp3
Формат : MPEG Audio
Размер файла : 9,94 Мбайт
Продолжительность : 4 м. 20 с.
Режим общего битрейта : Постоянный
Общий поток : 320 Кбит/сек
Альбом : BEST JAZZ 100 - Disk1 Classic Jazz Vocals
Альбом/Исполнитель : Various
Трек : Something cool
Трек/Положение : 02
Исполнитель : JUNE CHRISTY
Библиотека кодирования : LAME3.98
Аудио
Формат : MPEG Audio
Версия формата : Version 1
Профиль формата : Layer 3
Продолжительность : 4 м. 20 с.
Вид битрейта : Постоянный
Битрейт : 320 Кбит/сек
Каналы : 2 канала
Частота : 44,1 КГц
Метод сжатия : С потерями
Размер потока : 9,94 Мбайт (100%)
Библиотека кодирования : LAME3.98
Настройки программы : -m s -V 4 -q 0 -lowpass 20.5
Общее
Полное имя : D:\MEDIA\Audio\2008 - 100 Best Jazz\CD1 - Vocals\03.CHET BAKER - My funny valentine.mp3
Формат : MPEG Audio
Размер файла : 5,39 Мбайт
Продолжительность : 2 м. 21 с.
Режим общего битрейта : Постоянный
Общий поток : 320 Кбит/сек
Альбом : BEST JAZZ 100 - Disk1 Classic Jazz Vocals
Альбом/Исполнитель : Various
Трек : My funny valentine
Трек/Положение : 03
Исполнитель : CHET BAKER
Библиотека кодирования : LAME3.98
Аудио
Формат : MPEG Audio
Версия формата : Version 1
Профиль формата : Layer 3
Продолжительность : 2 м. 21 с.
Вид битрейта : Постоянный
Битрейт : 320 Кбит/сек
Каналы : 2 канала
Частота : 44,1 КГц
Метод сжатия : С потерями
Размер потока : 5,39 Мбайт (100%)
Библиотека кодирования : LAME3.98
Настройки программы : -m s -V 4 -q 0 -lowpass 20.5
Общее
Полное имя : D:\MEDIA\Audio\2008 - 100 Best Jazz\CD1 - Vocals\04.ELLA FITZGERALD - Misty blue.mp3
Формат : MPEG Audio
Размер файла : 5,72 Мбайт
Продолжительность : 2 м. 29 с.
Режим общего битрейта : Постоянный
Общий поток : 320 Кбит/сек
Альбом : BEST JAZZ 100 - Disk1 Classic Jazz Vocals
Альбом/Исполнитель : Various
Трек : Misty blue
Трек/Положение : 04
Исполнитель : ELLA FITZGERALD
Библиотека кодирования : LAME3.98
Аудио
Формат : MPEG Audio
Версия формата : Version 1
Профиль формата : Layer 3
Продолжительность : 2 м. 30 с.
Вид битрейта : Постоянный
Битрейт : 320 Кбит/сек
Каналы : 2 канала
Частота : 44,1 КГц
Метод сжатия : С потерями
Размер потока : 5,72 Мбайт (100%)
Библиотека кодирования : LAME3.98
Настройки программы : -m s -V 4 -q 0 -lowpass 20.5
Общее
Полное имя : D:\MEDIA\Audio\2008 - 100 Best Jazz\CD1 - Vocals\05.NANCY WILSON - Darn that dream.mp3
Формат : MPEG Audio
Размер файла : 6,58 Мбайт
Продолжительность : 2 м. 52 с.
Режим общего битрейта : Постоянный
Общий поток : 320 Кбит/сек
Альбом : BEST JAZZ 100 - Disk1 Classic Jazz Vocals
Альбом/Исполнитель : Various
Трек : Darn that dream
Трек/Положение : 05
Исполнитель : NANCY WILSON
Библиотека кодирования : LAME3.98
Аудио
Формат : MPEG Audio
Версия формата : Version 1
Профиль формата : Layer 3
Продолжительность : 2 м. 52 с.
Вид битрейта : Постоянный
Битрейт : 320 Кбит/сек
Каналы : 2 канала
Частота : 44,1 КГц
Метод сжатия : С потерями
Размер потока : 6,58 Мбайт (100%)
Библиотека кодирования : LAME3.98
Настройки программы : -m s -V 4 -q 0 -lowpass 20.5
Общее
Полное имя : D:\MEDIA\Audio\2008 - 100 Best Jazz\CD1 - Vocals\06.JO STAFFORD - Autumn in New York.mp3
Формат : MPEG Audio
Размер файла : 6,19 Мбайт
Продолжительность : 2 м. 42 с.
Режим общего битрейта : Постоянный
Общий поток : 320 Кбит/сек
Альбом : BEST JAZZ 100 - Disk1 Classic Jazz Vocals
Альбом/Исполнитель : Various
Трек : Autumn in New York
Трек/Положение : 06
Исполнитель : JO STAFFORD
Библиотека кодирования : LAME3.98
Аудио
Формат : MPEG Audio
Версия формата : Version 1
Профиль формата : Layer 3
Продолжительность : 2 м. 42 с.
Вид битрейта : Постоянный
Битрейт : 320 Кбит/сек
Каналы : 2 канала
Частота : 44,1 КГц
Метод сжатия : С потерями
Размер потока : 6,19 Мбайт (100%)
Библиотека кодирования : LAME3.98
Настройки программы : -m s -V 4 -q 0 -lowpass 20.5
Общее
Полное имя : D:\MEDIA\Audio\2008 - 100 Best Jazz\CD1 - Vocals\07.DINAH SHORE - April in Paris.mp3
Формат : MPEG Audio
Размер файла : 6,83 Мбайт
Продолжительность : 2 м. 59 с.
Режим общего битрейта : Постоянный
Общий поток : 320 Кбит/сек
Альбом : BEST JAZZ 100 - Disk1 Classic Jazz Vocals
Альбом/Исполнитель : Various
Трек : April in Paris
Трек/Положение : 07
Исполнитель : DINAH SHORE
Библиотека кодирования : LAME3.98
Аудио
Формат : MPEG Audio
Версия формата : Version 1
Профиль формата : Layer 3
Продолжительность : 2 м. 59 с.
Вид битрейта : Постоянный
Битрейт : 320 Кбит/сек
Каналы : 2 канала
Частота : 44,1 КГц
Метод сжатия : С потерями
Размер потока : 6,83 Мбайт (100%)
Библиотека кодирования : LAME3.98
Настройки программы : -m s -V 4 -q 0 -lowpass 20.5
Общее
Полное имя : D:\MEDIA\Audio\2008 - 100 Best Jazz\CD1 - Vocals\08.ABBEY LINCOLN - Do nothing till you hear from me.mp3
Формат : MPEG Audio
Размер файла : 5,25 Мбайт
Продолжительность : 2 м. 17 с.
Режим общего битрейта : Постоянный
Общий поток : 320 Кбит/сек
Альбом : BEST JAZZ 100 - Disk1 Classic Jazz Vocals
Альбом/Исполнитель : Various
Трек : Do nothing till you hear from me
Трек/Положение : 08
Исполнитель : ABBEY LINCOLN
Библиотека кодирования : LAME3.98
Аудио
Формат : MPEG Audio
Версия формата : Version 1
Профиль формата : Layer 3
Продолжительность : 2 м. 17 с.
Вид битрейта : Постоянный
Битрейт : 320 Кбит/сек
Каналы : 2 канала
Частота : 44,1 КГц
Метод сжатия : С потерями
Размер потока : 5,25 Мбайт (100%)
Библиотека кодирования : LAME3.98
Настройки программы : -m s -V 4 -q 0 -lowpass 20.5
Общее
Полное имя : D:\MEDIA\Audio\2008 - 100 Best Jazz\CD1 - Vocals\09.MARK MURPHY - Day in-day out.mp3
Формат : MPEG Audio
Размер файла : 9,18 Мбайт
Продолжительность : 4 м. 0 с.
Режим общего битрейта : Постоянный
Общий поток : 320 Кбит/сек
Альбом : BEST JAZZ 100 - Disk1 Classic Jazz Vocals
Альбом/Исполнитель : Various
Трек : Day in-day out
Трек/Положение : 09
Исполнитель : MARK MURPHY
Библиотека кодирования : LAME3.98
Аудио
Формат : MPEG Audio
Версия формата : Version 1
Профиль формата : Layer 3
Продолжительность : 4 м. 0 с.
Вид битрейта : Постоянный
Битрейт : 320 Кбит/сек
Каналы : 2 канала
Частота : 44,1 КГц
Метод сжатия : С потерями
Размер потока : 9,18 Мбайт (100%)
Библиотека кодирования : LAME3.98
Настройки программы : -m s -V 4 -q 0 -lowpass 20.5
Общее
Полное имя : D:\MEDIA\Audio\2008 - 100 Best Jazz\CD1 - Vocals\10.DINAH SHORE - It had to be you.mp3
Формат : MPEG Audio
Размер файла : 7,80 Мбайт
Продолжительность : 3 м. 24 с.
Режим общего битрейта : Постоянный
Общий поток : 320 Кбит/сек
Альбом : BEST JAZZ 100 - Disk1 Classic Jazz Vocals
Альбом/Исполнитель : Various
Трек : It had to be you
Трек/Положение : 10
Исполнитель : DINAH SHORE
Библиотека кодирования : LAME3.98
Аудио
Формат : MPEG Audio
Версия формата : Version 1
Профиль формата : Layer 3
Продолжительность : 3 м. 24 с.
Вид битрейта : Постоянный
Битрейт : 320 Кбит/сек
Каналы : 2 канала
Частота : 44,1 КГц
Метод сжатия : С потерями
Размер потока : 7,80 Мбайт (100%)
Библиотека кодирования : LAME3.98
Настройки программы : -m s -V 4 -q 0 -lowpass 20.5
Общее
Полное имя : D:\MEDIA\Audio\2008 - 100 Best Jazz\CD1 - Vocals\11.JACK JONES - Angel eyes.mp3
Формат : MPEG Audio
Размер файла : 7,45 Мбайт
Продолжительность : 3 м. 15 с.
Режим общего битрейта : Постоянный
Общий поток : 320 Кбит/сек
Альбом : BEST JAZZ 100 - Disk1 Classic Jazz Vocals
Альбом/Исполнитель : Various
Трек : Angel eyes
Трек/Положение : 11
Исполнитель : JACK JONES
Библиотека кодирования : LAME3.98
Аудио
Формат : MPEG Audio
Версия формата : Version 1
Профиль формата : Layer 3
Продолжительность : 3 м. 15 с.
Вид битрейта : Постоянный
Битрейт : 320 Кбит/сек
Каналы : 2 канала
Частота : 44,1 КГц
Метод сжатия : С потерями
Размер потока : 7,44 Мбайт (100%)
Библиотека кодирования : LAME3.98
Настройки программы : -m s -V 4 -q 0 -lowpass 20.5
Общее
Полное имя : D:\MEDIA\Audio\2008 - 100 Best Jazz\CD1 - Vocals\12.CARMEN McRAE - The man I love.mp3
Формат : MPEG Audio
Размер файла : 9,83 Мбайт
Продолжительность : 4 м. 17 с.
Режим общего битрейта : Постоянный
Общий поток : 320 Кбит/сек
Альбом : BEST JAZZ 100 - Disk1 Classic Jazz Vocals
Альбом/Исполнитель : Various
Трек : The man I love
Трек/Положение : 12
Исполнитель : CARMEN McRAE
Библиотека кодирования : LAME3.98
Аудио
Формат : MPEG Audio
Версия формата : Version 1
Профиль формата : Layer 3
Продолжительность : 4 м. 17 с.
Вид битрейта : Постоянный
Битрейт : 320 Кбит/сек
Каналы : 2 канала
Частота : 44,1 КГц
Метод сжатия : С потерями
Размер потока : 9,83 Мбайт (100%)
Библиотека кодирования : LAME3.98
Настройки программы : -m s -V 4 -q 0 -lowpass 20.5
Общее
Полное имя : D:\MEDIA\Audio\2008 - 100 Best Jazz\CD1 - Vocals\13.ANIE ROSS - It don't mean a thing.mp3
Формат : MPEG Audio
Размер файла : 4,95 Мбайт
Продолжительность : 2 м. 9 с.
Режим общего битрейта : Постоянный
Общий поток : 320 Кбит/сек
Альбом : BEST JAZZ 100 - Disk1 Classic Jazz Vocals
Альбом/Исполнитель : Various
Трек : It don't mean a thing
Трек/Положение : 13
Исполнитель : ANIE ROSS
Библиотека кодирования : LAME3.98
Аудио
Формат : MPEG Audio
Версия формата : Version 1
Профиль формата : Layer 3
Продолжительность : 2 м. 9 с.
Вид битрейта : Постоянный
Битрейт : 320 Кбит/сек
Каналы : 2 канала
Частота : 44,1 КГц
Метод сжатия : С потерями
Размер потока : 4,95 Мбайт (100%)
Библиотека кодирования : LAME3.98
Настройки программы : -m s -V 4 -q 0 -lowpass 20.5
Общее
Полное имя : D:\MEDIA\Audio\2008 - 100 Best Jazz\CD1 - Vocals\14.SUE RANEY - Here's that rainy day.mp3
Формат : MPEG Audio
Размер файла : 9,70 Мбайт
Продолжительность : 4 м. 14 с.
Режим общего битрейта : Постоянный
Общий поток : 320 Кбит/сек
Альбом : BEST JAZZ 100 - Disk1 Classic Jazz Vocals
Альбом/Исполнитель : Various
Трек : Here's that rainy day
Трек/Положение : 14
Исполнитель : SUE RANEY
Библиотека кодирования : LAME3.98
Аудио
Формат : MPEG Audio
Версия формата : Version 1
Профиль формата : Layer 3
Продолжительность : 4 м. 14 с.
Вид битрейта : Постоянный
Битрейт : 320 Кбит/сек
Каналы : 2 канала
Частота : 44,1 КГц
Метод сжатия : С потерями
Размер потока : 9,69 Мбайт (100%)
Библиотека кодирования : LAME3.98
Настройки программы : -m s -V 4 -q 0 -lowpass 20.5
Общее
Полное имя : D:\MEDIA\Audio\2008 - 100 Best Jazz\CD1 - Vocals\15.JACK TEAGARDEN - Stars fell on Alabama.mp3
Формат : MPEG Audio
Размер файла : 6,89 Мбайт
Продолжительность : 3 м. 0 с.
Режим общего битрейта : Постоянный
Общий поток : 320 Кбит/сек
Альбом : BEST JAZZ 100 - Disk1 Classic Jazz Vocals
Альбом/Исполнитель : Various
Трек : Stars fell on Alabama
Трек/Положение : 15
Исполнитель : JACK TEAGARDEN
Библиотека кодирования : LAME3.98
Аудио
Формат : MPEG Audio
Версия формата : Version 1
Профиль формата : Layer 3
Продолжительность : 3 м. 0 с.
Вид битрейта : Постоянный
Битрейт : 320 Кбит/сек
Каналы : 2 канала
Частота : 44,1 КГц
Метод сжатия : С потерями
Размер потока : 6,89 Мбайт (100%)
Библиотека кодирования : LAME3.98
Настройки программы : -m s -V 4 -q 0 -lowpass 20.5
Общее
Полное имя : D:\MEDIA\Audio\2008 - 100 Best Jazz\CD1 - Vocals\16.BILLIE HOLIDAY - Blue moon.mp3
Формат : MPEG Audio
Размер файла : 5,14 Мбайт
Продолжительность : 2 м. 14 с.
Режим общего битрейта : Постоянный
Общий поток : 320 Кбит/сек
Альбом : BEST JAZZ 100 - Disk1 Classic Jazz Vocals
Альбом/Исполнитель : Various
Трек : Blue moon
Трек/Положение : 16
Исполнитель : BILLIE HOLIDAY
Библиотека кодирования : LAME3.98
Аудио
Формат : MPEG Audio
Версия формата : Version 1
Профиль формата : Layer 3
Продолжительность : 2 м. 14 с.
Вид битрейта : Постоянный
Битрейт : 320 Кбит/сек
Каналы : 2 канала
Частота : 44,1 КГц
Метод сжатия : С потерями
Размер потока : 5,14 Мбайт (100%)
Библиотека кодирования : LAME3.98
Настройки программы : -m s -V 4 -q 0 -lowpass 20.5
Общее
Полное имя : D:\MEDIA\Audio\2008 - 100 Best Jazz\CD1 - Vocals\17.DAKOTA STATION - A foggy day.mp3
Формат : MPEG Audio
Размер файла : 5,34 Мбайт
Продолжительность : 2 м. 19 с.
Режим общего битрейта : Постоянный
Общий поток : 320 Кбит/сек
Альбом : BEST JAZZ 100 - Disk1 Classic Jazz Vocals
Альбом/Исполнитель : Various
Трек : A foggy day
Трек/Положение : 17
Исполнитель : DAKOTA STATION
Библиотека кодирования : LAME3.98
Аудио
Формат : MPEG Audio
Версия формата : Version 1
Профиль формата : Layer 3
Продолжительность : 2 м. 20 с.
Вид битрейта : Постоянный
Битрейт : 320 Кбит/сек
Каналы : 2 канала
Частота : 44,1 КГц
Метод сжатия : С потерями
Размер потока : 5,34 Мбайт (100%)
Библиотека кодирования : LAME3.98
Настройки программы : -m s -V 4 -q 0 -lowpass 20.5
Общее
Полное имя : D:\MEDIA\Audio\2008 - 100 Best Jazz\CD1 - Vocals\18.DIANNE REEVES - Exactly like you.mp3
Формат : MPEG Audio
Размер файла : 12,3 Мбайт
Продолжительность : 5 м. 22 с.
Режим общего битрейта : Постоянный
Общий поток : 320 Кбит/сек
Альбом : BEST JAZZ 100 - Disk1 Classic Jazz Vocals
Альбом/Исполнитель : Various
Трек : Exactly like you
Трек/Положение : 18
Исполнитель : DIANNE REEVES
Библиотека кодирования : LAME3.98
Аудио
Формат : MPEG Audio
Версия формата : Version 1
Профиль формата : Layer 3
Продолжительность : 5 м. 23 с.
Вид битрейта : Постоянный
Битрейт : 320 Кбит/сек
Каналы : 2 канала
Частота : 44,1 КГц
Метод сжатия : С потерями
Размер потока : 12,3 Мбайт (100%)
Библиотека кодирования : LAME3.98
Настройки программы : -m s -V 4 -q 0 -lowpass 20.5
Общее
Полное имя : D:\MEDIA\Audio\2008 - 100 Best Jazz\CD1 - Vocals\19.LOU RAWLS - I ain't got nothin' but the blues.mp3
Формат : MPEG Audio
Размер файла : 7,75 Мбайт
Продолжительность : 3 м. 23 с.
Режим общего битрейта : Постоянный
Общий поток : 320 Кбит/сек
Альбом : BEST JAZZ 100 - Disk1 Classic Jazz Vocals
Альбом/Исполнитель : Various
Трек : I ain't got nothin' but the blues
Трек/Положение : 19
Исполнитель : LOU RAWLS
Библиотека кодирования : LAME3.98
Аудио
Формат : MPEG Audio
Версия формата : Version 1
Профиль формата : Layer 3
Продолжительность : 3 м. 23 с.
Вид битрейта : Постоянный
Битрейт : 320 Кбит/сек
Каналы : 2 канала
Частота : 44,1 КГц
Метод сжатия : С потерями
Размер потока : 7,75 Мбайт (100%)
Библиотека кодирования : LAME3.98
Настройки программы : -m s -V 4 -q 0 -lowpass 20.5
Общее
Полное имя : D:\MEDIA\Audio\2008 - 100 Best Jazz\CD1 - Vocals\20.LENA HORNE - Something to live for.mp3
Формат : MPEG Audio
Размер файла : 11,0 Мбайт
Продолжительность : 4 м. 47 с.
Режим общего битрейта : Постоянный
Общий поток : 320 Кбит/сек
Альбом : BEST JAZZ 100 - Disk1 Classic Jazz Vocals
Альбом/Исполнитель : Various
Трек : Something to live for
Трек/Положение : 20
Исполнитель : LENA HORNE
Библиотека кодирования : LAME3.98
Аудио
Формат : MPEG Audio
Версия формата : Version 1
Профиль формата : Layer 3
Продолжительность : 4 м. 47 с.
Вид битрейта : Постоянный
Битрейт : 320 Кбит/сек
Каналы : 2 канала
Частота : 44,1 КГц
Метод сжатия : С потерями
Размер потока : 11,0 Мбайт (100%)
Библиотека кодирования : LAME3.98
Настройки программы : -m s -V 4 -q 0 -lowpass 20.5
Общее
Полное имя : D:\MEDIA\Audio\2008 - 100 Best Jazz\CD2 - Swing Classics in Hi-Fi\01.BILY MAY AND HIS ORCHESTRA - For dancers only.mp3
Формат : MPEG Audio
Размер файла : 6,20 Мбайт
Продолжительность : 2 м. 42 с.
Режим общего битрейта : Постоянный
Общий поток : 320 Кбит/сек
Альбом : BEST JAZZ 100 - Disk2 Swing Classics in Hi-Fi
Альбом/Исполнитель : Various
Трек : For dancers only
Трек/Положение : 01
Исполнитель : BILY MAY AND HIS ORCHESTRA
Библиотека кодирования : LAME3.98
Аудио
Формат : MPEG Audio
Версия формата : Version 1
Профиль формата : Layer 3
Продолжительность : 2 м. 42 с.
Вид битрейта : Постоянный
Битрейт : 320 Кбит/сек
Каналы : 2 канала
Частота : 44,1 КГц
Метод сжатия : С потерями
Размер потока : 6,20 Мбайт (100%)
Библиотека кодирования : LAME3.98
Настройки программы : -m s -V 4 -q 0 -lowpass 20.5
Общее
Полное имя : D:\MEDIA\Audio\2008 - 100 Best Jazz\CD2 - Swing Classics in Hi-Fi\02.BENNY GOODMAN AND HIS ORCHESTRA - Stampin' at the savoy.mp3
Формат : MPEG Audio
Размер файла : 7,39 Мбайт
Продолжительность : 3 м. 13 с.
Режим общего битрейта : Постоянный
Общий поток : 320 Кбит/сек
Альбом : BEST JAZZ 100 - Disk2 Swing Classics in Hi-Fi
Альбом/Исполнитель : Various
Трек : Stampin' at the savoy
Трек/Положение : 02
Исполнитель : BENNY GOODMAN AND HIS ORCHESTRA
Библиотека кодирования : LAME3.98
Аудио
Формат : MPEG Audio
Версия формата : Version 1
Профиль формата : Layer 3
Продолжительность : 3 м. 13 с.
Вид битрейта : Постоянный
Битрейт : 320 Кбит/сек
Каналы : 2 канала
Частота : 44,1 КГц
Метод сжатия : С потерями
Размер потока : 7,39 Мбайт (100%)
Библиотека кодирования : LAME3.98
Настройки программы : -m s -V 4 -q 0 -lowpass 20.5
Общее
Полное имя : D:\MEDIA\Audio\2008 - 100 Best Jazz\CD2 - Swing Classics in Hi-Fi\03.LES BROWN AND HIS ORCHESTRA - Leap frop.mp3
Формат : MPEG Audio
Размер файла : 6,47 Мбайт
Продолжительность : 2 м. 49 с.
Режим общего битрейта : Постоянный
Общий поток : 320 Кбит/сек
Альбом : BEST JAZZ 100 - Disk2 Swing Classics in Hi-Fi
Альбом/Исполнитель : Various
Трек : Leap frop
Трек/Положение : 03
Исполнитель : LES BROWN AND HIS ORCHESTRA
Библиотека кодирования : LAME3.98
Аудио
Формат : MPEG Audio
Версия формата : Version 1
Профиль формата : Layer 3
Продолжительность : 2 м. 49 с.
Вид битрейта : Постоянный
Битрейт : 320 Кбит/сек
Каналы : 2 канала
Частота : 44,1 КГц
Метод сжатия : С потерями
Размер потока : 6,47 Мбайт (100%)
Библиотека кодирования : LAME3.98
Настройки программы : -m s -V 4 -q 0 -lowpass 20.5
Общее
Полное имя : D:\MEDIA\Audio\2008 - 100 Best Jazz\CD2 - Swing Classics in Hi-Fi\04.DUKE ELLINGTON AND HIS ORCHESTRA - Satin doll.mp3
Формат : MPEG Audio
Размер файла : 6,82 Мбайт
Продолжительность : 2 м. 58 с.
Режим общего битрейта : Постоянный
Общий поток : 320 Кбит/сек
Альбом : BEST JAZZ 100 - Disk2 Swing Classics in Hi-Fi
Альбом/Исполнитель : Various
Трек : Satin doll
Трек/Положение : 04
Исполнитель : DUKE ELLINGTON AND HIS ORCHESTRA
Библиотека кодирования : LAME3.98
Аудио
Формат : MPEG Audio
Версия формата : Version 1
Профиль формата : Layer 3
Продолжительность : 2 м. 58 с.
Вид битрейта : Постоянный
Битрейт : 320 Кбит/сек
Каналы : 2 канала
Частота : 44,1 КГц
Метод сжатия : С потерями
Размер потока : 6,82 Мбайт (100%)
Библиотека кодирования : LAME3.98
Настройки программы : -m s -V 4 -q 0 -lowpass 20.5
Общее
Полное имя : D:\MEDIA\Audio\2008 - 100 Best Jazz\CD2 - Swing Classics in Hi-Fi\05.BENNY GOODMAN AND HIS ORCHESTRA - Let's dance.mp3
Формат : MPEG Audio
Размер файла : 5,11 Мбайт
Продолжительность : 2 м. 13 с.
Режим общего битрейта : Постоянный
Общий поток : 320 Кбит/сек
Альбом : BEST JAZZ 100 - Disk2 Swing Classics in Hi-Fi
Альбом/Исполнитель : Various
Трек : Let's dance
Трек/Положение : 05
Исполнитель : BENNY GOODMAN AND HIS ORCHESTRA
Библиотека кодирования : LAME3.98
Аудио
Формат : MPEG Audio
Версия формата : Version 1
Профиль формата : Layer 3
Продолжительность : 2 м. 14 с.
Вид битрейта : Постоянный
Битрейт : 320 Кбит/сек
Каналы : 2 канала
Частота : 44,1 КГц
Метод сжатия : С потерями
Размер потока : 5,11 Мбайт (100%)
Библиотека кодирования : LAME3.98
Настройки программы : -m s -V 4 -q 0 -lowpass 20.5
Общее
Полное имя : D:\MEDIA\Audio\2008 - 100 Best Jazz\CD2 - Swing Classics in Hi-Fi\06.BILLY MAY AND HIS ORCHESTRA - T'ain't what you do.mp3
Формат : MPEG Audio
Размер файла : 6,94 Мбайт
Продолжительность : 3 м. 1 с.
Режим общего битрейта : Постоянный
Общий поток : 320 Кбит/сек
Альбом : BEST JAZZ 100 - Disk2 Swing Classics in Hi-Fi
Альбом/Исполнитель : Various
Трек : T'ain't what you do
Трек/Положение : 06
Исполнитель : BILLY MAY AND HIS ORCHESTRA
Библиотека кодирования : LAME3.98
Аудио
Формат : MPEG Audio
Версия формата : Version 1
Профиль формата : Layer 3
Продолжительность : 3 м. 2 с.
Вид битрейта : Постоянный
Битрейт : 320 Кбит/сек
Каналы : 2 канала
Частота : 44,1 КГц
Метод сжатия : С потерями
Размер потока : 6,94 Мбайт (100%)
Библиотека кодирования : LAME3.98
Настройки программы : -m s -V 4 -q 0 -lowpass 20.5
Общее
Полное имя : D:\MEDIA\Audio\2008 - 100 Best Jazz\CD2 - Swing Classics in Hi-Fi\07.GLEN GRAYAND THE CASA LOMA ORCHESTRA - Opus n°1.mp3
Формат : MPEG Audio
Размер файла : 6,83 Мбайт
Продолжительность : 2 м. 58 с.
Режим общего битрейта : Постоянный
Общий поток : 320 Кбит/сек
Альбом : BEST JAZZ 100 - Disk2 Swing Classics in Hi-Fi
Альбом/Исполнитель : Various
Трек : Opus n°1
Трек/Положение : 07
Исполнитель : GLEN GRAYAND THE CASA LOMA ORCHESTRA
Библиотека кодирования : LAME3.98
Аудио
Формат : MPEG Audio
Версия формата : Version 1
Профиль формата : Layer 3
Продолжительность : 2 м. 59 с.
Вид битрейта : Постоянный
Битрейт : 320 Кбит/сек
Каналы : 2 канала
Частота : 44,1 КГц
Метод сжатия : С потерями
Размер потока : 6,83 Мбайт (100%)
Библиотека кодирования : LAME3.98
Настройки программы : -m s -V 4 -q 0 -lowpass 20.5
Общее
Полное имя : D:\MEDIA\Audio\2008 - 100 Best Jazz\CD2 - Swing Classics in Hi-Fi\08.STAN KENTON AND HIS ORCHESTRA - Intermission riff.mp3
Формат : MPEG Audio
Размер файла : 9,79 Мбайт
Продолжительность : 4 м. 16 с.
Режим общего битрейта : Постоянный
Общий поток : 320 Кбит/сек
Альбом : BEST JAZZ 100 - Disk2 Swing Classics in Hi-Fi
Альбом/Исполнитель : Various
Трек : Intermission riff
Трек/Положение : 08
Исполнитель : STAN KENTON AND HIS ORCHESTRA
Библиотека кодирования : LAME3.98
Аудио
Формат : MPEG Audio
Версия формата : Version 1
Профиль формата : Layer 3
Продолжительность : 4 м. 16 с.
Вид битрейта : Постоянный
Битрейт : 320 Кбит/сек
Каналы : 2 канала
Частота : 44,1 КГц
Метод сжатия : С потерями
Размер потока : 9,79 Мбайт (100%)
Библиотека кодирования : LAME3.98
Настройки программы : -m s -V 4 -q 0 -lowpass 20.5
Общее
Полное имя : D:\MEDIA\Audio\2008 - 100 Best Jazz\CD2 - Swing Classics in Hi-Fi\09.WOODY HERMAN AND HIS ORCHESTRA - Sleep.mp3
Формат : MPEG Audio
Размер файла : 8,88 Мбайт
Продолжительность : 3 м. 52 с.
Режим общего битрейта : Постоянный
Общий поток : 320 Кбит/сек
Альбом : BEST JAZZ 100 - Disk2 Swing Classics in Hi-Fi
Альбом/Исполнитель : Various
Трек : Sleep
Трек/Положение : 09
Исполнитель : WOODY HERMAN AND HIS ORCHESTRA
Библиотека кодирования : LAME3.98
Аудио
Формат : MPEG Audio
Версия формата : Version 1
Профиль формата : Layer 3
Продолжительность : 3 м. 52 с.
Вид битрейта : Постоянный
Битрейт : 320 Кбит/сек
Каналы : 2 канала
Частота : 44,1 КГц
Метод сжатия : С потерями
Размер потока : 8,88 Мбайт (100%)
Библиотека кодирования : LAME3.98
Настройки программы : -m s -V 4 -q 0 -lowpass 20.5
Общее
Полное имя : D:\MEDIA\Audio\2008 - 100 Best Jazz\CD2 - Swing Classics in Hi-Fi\10.BENNY GOODMAN AND HIS ORCHESTRA - Jumpin' at the woodside.mp3
Формат : MPEG Audio
Размер файла : 8,07 Мбайт
Продолжительность : 3 м. 31 с.
Режим общего битрейта : Постоянный
Общий поток : 320 Кбит/сек
Альбом : BEST JAZZ 100 - Disk2 Swing Classics in Hi-Fi
Альбом/Исполнитель : Various
Трек : Jumpin' at the woodside
Трек/Положение : 10
Исполнитель : BENNY GOODMAN AND HIS ORCHESTRA
Библиотека кодирования : LAME3.98
Аудио
Формат : MPEG Audio
Версия формата : Version 1
Профиль формата : Layer 3
Продолжительность : 3 м. 31 с.
Вид битрейта : Постоянный
Битрейт : 320 Кбит/сек
Каналы : 2 канала
Частота : 44,1 КГц
Метод сжатия : С потерями
Размер потока : 8,06 Мбайт (100%)
Библиотека кодирования : LAME3.98
Настройки программы : -m s -V 4 -q 0 -lowpass 20.5
Общее
Полное имя : D:\MEDIA\Audio\2008 - 100 Best Jazz\CD2 - Swing Classics in Hi-Fi\11.DUKE ELLINGTON AND HIS ORCHESTRA - Harlem air shaft.mp3
Формат : MPEG Audio
Размер файла : 8,93 Мбайт
Продолжительность : 3 м. 54 с.
Режим общего битрейта : Постоянный
Общий поток : 320 Кбит/сек
Альбом : BEST JAZZ 100 - Disk2 Swing Classics in Hi-Fi
Альбом/Исполнитель : Various
Трек : Harlem air shaft
Трек/Положение : 11
Исполнитель : DUKE ELLINGTON AND HIS ORCHESTRA
Библиотека кодирования : LAME3.98
Аудио
Формат : MPEG Audio
Версия формата : Version 1
Профиль формата : Layer 3
Продолжительность : 3 м. 54 с.
Вид битрейта : Постоянный
Битрейт : 320 Кбит/сек
Каналы : 2 канала
Частота : 44,1 КГц
Метод сжатия : С потерями
Размер потока : 8,93 Мбайт (100%)
Библиотека кодирования : LAME3.98
Настройки программы : -m s -V 4 -q 0 -lowpass 20.5
Общее
Полное имя : D:\MEDIA\Audio\2008 - 100 Best Jazz\CD2 - Swing Classics in Hi-Fi\12.HARRY JAMES AND HIS ORCHESTRA - I'm beginning to see the light.mp3
Формат : MPEG Audio
Размер файла : 7,17 Мбайт
Продолжительность : 3 м. 8 с.
Режим общего битрейта : Постоянный
Общий поток : 320 Кбит/сек
Альбом : BEST JAZZ 100 - Disk2 Swing Classics in Hi-Fi
Альбом/Исполнитель : Various
Трек : I'm beginning to see the light
Трек/Положение : 12
Исполнитель : HARRY JAMES AND HIS ORCHESTRA
Библиотека кодирования : LAME3.98
Аудио
Формат : MPEG Audio
Версия формата : Version 1
Профиль формата : Layer 3
Продолжительность : 3 м. 8 с.
Вид битрейта : Постоянный
Битрейт : 320 Кбит/сек
Каналы : 2 канала
Частота : 44,1 КГц
Метод сжатия : С потерями
Размер потока : 7,17 Мбайт (100%)
Библиотека кодирования : LAME3.98
Настройки программы : -m s -V 4 -q 0 -lowpass 20.5
Общее
Полное имя : D:\MEDIA\Audio\2008 - 100 Best Jazz\CD2 - Swing Classics in Hi-Fi\13.LES BROWN AND HIS ORCHESTRA - A good man is hard to find.mp3
Формат : MPEG Audio
Размер файла : 5,69 Мбайт
Продолжительность : 2 м. 29 с.
Режим общего битрейта : Постоянный
Общий поток : 320 Кбит/сек
Альбом : BEST JAZZ 100 - Disk2 Swing Classics in Hi-Fi
Альбом/Исполнитель : Various
Трек : A good man is hard to find
Трек/Положение : 13
Исполнитель : LES BROWN AND HIS ORCHESTRA
Библиотека кодирования : LAME3.98
Аудио
Формат : MPEG Audio
Версия формата : Version 1
Профиль формата : Layer 3
Продолжительность : 2 м. 29 с.
Вид битрейта : Постоянный
Битрейт : 320 Кбит/сек
Каналы : 2 канала
Частота : 44,1 КГц
Метод сжатия : С потерями
Размер потока : 5,69 Мбайт (100%)
Библиотека кодирования : LAME3.98
Настройки программы : -m s -V 4 -q 0 -lowpass 20.5
Общее
Полное имя : D:\MEDIA\Audio\2008 - 100 Best Jazz\CD2 - Swing Classics in Hi-Fi\14.BILLY MAY AND HIS ORCHESTRA - Annie Laurie.mp3
Формат : MPEG Audio
Размер файла : 7,14 Мбайт
Продолжительность : 3 м. 7 с.
Режим общего битрейта : Постоянный
Общий поток : 320 Кбит/сек
Альбом : BEST JAZZ 100 - Disk2 Swing Classics in Hi-Fi
Альбом/Исполнитель : Various
Трек : Annie Laurie
Трек/Положение : 14
Исполнитель : BILLY MAY AND HIS ORCHESTRA
Библиотека кодирования : LAME3.98
Аудио
Формат : MPEG Audio
Версия формата : Version 1
Профиль формата : Layer 3
Продолжительность : 3 м. 7 с.
Вид битрейта : Постоянный
Битрейт : 320 Кбит/сек
Каналы : 2 канала
Частота : 44,1 КГц
Метод сжатия : С потерями
Размер потока : 7,14 Мбайт (100%)
Библиотека кодирования : LAME3.98
Настройки программы : -m s -V 4 -q 0 -lowpass 20.5
Общее
Полное имя : D:\MEDIA\Audio\2008 - 100 Best Jazz\CD2 - Swing Classics in Hi-Fi\15.STAN KENTON AND HIS ORCHESTRA - The peanut vendor.mp3
Формат : MPEG Audio
Размер файла : 10,5 Мбайт
Продолжительность : 4 м. 34 с.
Режим общего битрейта : Постоянный
Общий поток : 320 Кбит/сек
Альбом : BEST JAZZ 100 - Disk2 Swing Classics in Hi-Fi
Альбом/Исполнитель : Various
Трек : The peanut vendor
Трек/Положение : 15
Исполнитель : STAN KENTON AND HIS ORCHESTRA
Библиотека кодирования : LAME3.98
Аудио
Формат : MPEG Audio
Версия формата : Version 1
Профиль формата : Layer 3
Продолжительность : 4 м. 34 с.
Вид битрейта : Постоянный
Битрейт : 320 Кбит/сек
Каналы : 2 канала
Частота : 44,1 КГц
Метод сжатия : С потерями
Размер потока : 10,5 Мбайт (100%)
Библиотека кодирования : LAME3.98
Настройки программы : -m s -V 4 -q 0 -lowpass 20.5
Общее
Полное имя : D:\MEDIA\Audio\2008 - 100 Best Jazz\CD2 - Swing Classics in Hi-Fi\16.GLEN GRAY AND THE CASA LOMA ORCHESTRA - Come and get it.mp3
Формат : MPEG Audio
Размер файла : 6,72 Мбайт
Продолжительность : 2 м. 56 с.
Режим общего битрейта : Постоянный
Общий поток : 320 Кбит/сек
Альбом : BEST JAZZ 100 - Disk2 Swing Classics in Hi-Fi
Альбом/Исполнитель : Various
Трек : Come and get it
Трек/Положение : 16
Исполнитель : GLEN GRAY AND THE CASA LOMA ORCHESTRA
Библиотека кодирования : LAME3.98
Аудио
Формат : MPEG Audio
Версия формата : Version 1
Профиль формата : Layer 3
Продолжительность : 2 м. 56 с.
Вид битрейта : Постоянный
Битрейт : 320 Кбит/сек
Каналы : 2 канала
Частота : 44,1 КГц
Метод сжатия : С потерями
Размер потока : 6,72 Мбайт (100%)
Библиотека кодирования : LAME3.98
Настройки программы : -m s -V 4 -q 0 -lowpass 20.5
Общее
Полное имя : D:\MEDIA\Audio\2008 - 100 Best Jazz\CD2 - Swing Classics in Hi-Fi\17.BILLY MAY AND HIS ORCHESTRA - Margie.mp3
Формат : MPEG Audio
Размер файла : 7,13 Мбайт
Продолжительность : 3 м. 6 с.
Режим общего битрейта : Постоянный
Общий поток : 320 Кбит/сек
Альбом : BEST JAZZ 100 - Disk2 Swing Classics in Hi-Fi
Альбом/Исполнитель : Various
Трек : Margie
Трек/Положение : 17
Исполнитель : BILLY MAY AND HIS ORCHESTRA
Библиотека кодирования : LAME3.98
Аудио
Формат : MPEG Audio
Версия формата : Version 1
Профиль формата : Layer 3
Продолжительность : 3 м. 6 с.
Вид битрейта : Постоянный
Битрейт : 320 Кбит/сек
Каналы : 2 канала
Частота : 44,1 КГц
Метод сжатия : С потерями
Размер потока : 7,13 Мбайт (100%)
Библиотека кодирования : LAME3.98
Настройки программы : -m s -V 4 -q 0 -lowpass 20.5
Общее
Полное имя : D:\MEDIA\Audio\2008 - 100 Best Jazz\CD2 - Swing Classics in Hi-Fi\18.LES BROWN AND HIS ORCHESTRA - I've got my love to keep me.mp3
Формат : MPEG Audio
Размер файла : 6,43 Мбайт
Продолжительность : 2 м. 48 с.
Режим общего битрейта : Постоянный
Общий поток : 320 Кбит/сек
Альбом : BEST JAZZ 100 - Disk2 Swing Classics in Hi-Fi
Альбом/Исполнитель : Various
Трек : I've got my love to keep me
Трек/Положение : 18
Исполнитель : LES BROWN AND HIS ORCHESTRA
Библиотека кодирования : LAME3.98
Аудио
Формат : MPEG Audio
Версия формата : Version 1
Профиль формата : Layer 3
Продолжительность : 2 м. 48 с.
Вид битрейта : Постоянный
Битрейт : 320 Кбит/сек
Каналы : 2 канала
Частота : 44,1 КГц
Метод сжатия : С потерями
Размер потока : 6,43 Мбайт (100%)
Библиотека кодирования : LAME3.98
Настройки программы : -m s -V 4 -q 0 -lowpass 20.5
Общее
Полное имя : D:\MEDIA\Audio\2008 - 100 Best Jazz\CD2 - Swing Classics in Hi-Fi\19.GLEN GRAY AND THE CASA LOMA ORCHESTRA - Apollo jumps.mp3
Формат : MPEG Audio
Размер файла : 6,84 Мбайт
Продолжительность : 2 м. 59 с.
Режим общего битрейта : Постоянный
Общий поток : 320 Кбит/сек
Альбом : BEST JAZZ 100 - Disk2 Swing Classics in Hi-Fi
Альбом/Исполнитель : Various
Трек : Apollo jumps
Трек/Положение : 19
Исполнитель : GLEN GRAY AND THE CASA LOMA ORCHESTRA
Библиотека кодирования : LAME3.98
Аудио
Формат : MPEG Audio
Версия формата : Version 1
Профиль формата : Layer 3
Продолжительность : 2 м. 59 с.
Вид битрейта : Постоянный
Битрейт : 320 Кбит/сек
Каналы : 2 канала
Частота : 44,1 КГц
Метод сжатия : С потерями
Размер потока : 6,84 Мбайт (100%)
Библиотека кодирования : LAME3.98
Настройки программы : -m s -V 4 -q 0 -lowpass 20.5
Общее
Полное имя : D:\MEDIA\Audio\2008 - 100 Best Jazz\CD2 - Swing Classics in Hi-Fi\20.BENNY GOODMAN AND HIS ORCHESTRA - Sing, sing, sing.mp3
Формат : MPEG Audio
Размер файла : 17,0 Мбайт
Продолжительность : 7 м. 25 с.
Режим общего битрейта : Постоянный
Общий поток : 320 Кбит/сек
Альбом : BEST JAZZ 100 - Disk2 Swing Classics in Hi-Fi
Альбом/Исполнитель : Various
Трек : Sing, sing, sing
Трек/Положение : 20
Исполнитель : BENNY GOODMAN AND HIS ORCHESTRA
Библиотека кодирования : LAME3.98
Аудио
Формат : MPEG Audio
Версия формата : Version 1
Профиль формата : Layer 3
Продолжительность : 7 м. 25 с.
Вид битрейта : Постоянный
Битрейт : 320 Кбит/сек
Каналы : 2 канала
Частота : 44,1 КГц
Метод сжатия : С потерями
Размер потока : 17,0 Мбайт (100%)
Библиотека кодирования : LAME3.98
Настройки программы : -m s -V 4 -q 0 -lowpass 20.5
Общее
Полное имя : D:\MEDIA\Audio\2008 - 100 Best Jazz\CD3 - Latin Jazz\01.STAN KENTON AND HIS ORCHESTRA - Machito.mp3
Формат : MPEG Audio
Размер файла : 5,61 Мбайт
Продолжительность : 2 м. 26 с.
Режим общего битрейта : Постоянный
Общий поток : 320 Кбит/сек
Альбом : BEST JAZZ 100 - Disk3 Latin Jazz
Альбом/Исполнитель : Various
Трек : Machito
Трек/Положение : 01
Исполнитель : STAN KENTON AND HIS ORCHESTRA
Библиотека кодирования : LAME3.98
Аудио
Формат : MPEG Audio
Версия формата : Version 1
Профиль формата : Layer 3
Продолжительность : 2 м. 27 с.
Вид битрейта : Постоянный
Битрейт : 320 Кбит/сек
Каналы : 2 канала
Частота : 44,1 КГц
Метод сжатия : С потерями
Размер потока : 5,61 Мбайт (100%)
Библиотека кодирования : LAME3.98
Настройки программы : -m s -V 4 -q 0 -lowpass 20.5
Общее
Полное имя : D:\MEDIA\Audio\2008 - 100 Best Jazz\CD3 - Latin Jazz\02.TADD DAMERON - Jahberu.mp3
Формат : MPEG Audio
Размер файла : 6,67 Мбайт
Продолжительность : 2 м. 54 с.
Режим общего битрейта : Постоянный
Общий поток : 320 Кбит/сек
Альбом : BEST JAZZ 100 - Disk3 Latin Jazz
Альбом/Исполнитель : Various
Трек : Jahberu
Трек/Положение : 02
Исполнитель : TADD DAMERON
Библиотека кодирования : LAME3.98
Аудио
Формат : MPEG Audio
Версия формата : Version 1
Профиль формата : Layer 3
Продолжительность : 2 м. 54 с.
Вид битрейта : Постоянный
Битрейт : 320 Кбит/сек
Каналы : 2 канала
Частота : 44,1 КГц
Метод сжатия : С потерями
Размер потока : 6,67 Мбайт (100%)
Библиотека кодирования : LAME3.98
Настройки программы : -m s -V 4 -q 0 -lowpass 20.5
Общее
Полное имя : D:\MEDIA\Audio\2008 - 100 Best Jazz\CD3 - Latin Jazz\03.JAMES MOODY & CHANO POZO - Tin tin deo.mp3
Формат : MPEG Audio
Размер файла : 6,42 Мбайт
Продолжительность : 2 м. 48 с.
Режим общего битрейта : Постоянный
Общий поток : 320 Кбит/сек
Альбом : BEST JAZZ 100 - Disk3 Latin Jazz
Альбом/Исполнитель : Various
Трек : Tin tin deo
Трек/Положение : 03
Исполнитель : JAMES MOODY & CHANO POZO
Библиотека кодирования : LAME3.98
Аудио
Формат : MPEG Audio
Версия формата : Version 1
Профиль формата : Layer 3
Продолжительность : 2 м. 48 с.
Вид битрейта : Постоянный
Битрейт : 320 Кбит/сек
Каналы : 2 канала
Частота : 44,1 КГц
Метод сжатия : С потерями
Размер потока : 6,42 Мбайт (100%)
Библиотека кодирования : LAME3.98
Настройки программы : -m s -V 4 -q 0 -lowpass 20.5
Общее
Полное имя : D:\MEDIA\Audio\2008 - 100 Best Jazz\CD3 - Latin Jazz\04.KENNY DORHAM - Basheer's dream.mp3
Формат : MPEG Audio
Размер файла : 11,5 Мбайт
Продолжительность : 5 м. 0 с.
Режим общего битрейта : Постоянный
Общий поток : 320 Кбит/сек
Альбом : BEST JAZZ 100 - Disk3 Latin Jazz
Альбом/Исполнитель : Various
Трек : Basheer's dream
Трек/Положение : 04
Исполнитель : KENNY DORHAM
Библиотека кодирования : LAME3.98
Аудио
Формат : MPEG Audio
Версия формата : Version 1
Профиль формата : Layer 3
Продолжительность : 5 м. 0 с.
Вид битрейта : Постоянный
Битрейт : 320 Кбит/сек
Каналы : 2 канала
Частота : 44,1 КГц
Метод сжатия : С потерями
Размер потока : 11,5 Мбайт (100%)
Библиотека кодирования : LAME3.98
Настройки программы : -m s -V 4 -q 0 -lowpass 20.5
Общее
Полное имя : D:\MEDIA\Audio\2008 - 100 Best Jazz\CD3 - Latin Jazz\05.HORACE PARLAN - Congalegra.mp3
Формат : MPEG Audio
Размер файла : 10,1 Мбайт
Продолжительность : 4 м. 23 с.
Режим общего битрейта : Постоянный
Общий поток : 320 Кбит/сек
Альбом : BEST JAZZ 100 - Disk3 Latin Jazz
Альбом/Исполнитель : Various
Трек : Congalegra
Трек/Положение : 05
Исполнитель : HORACE PARLAN
Библиотека кодирования : LAME3.98
Аудио
Формат : MPEG Audio
Версия формата : Version 1
Профиль формата : Layer 3
Продолжительность : 4 м. 23 с.
Вид битрейта : Постоянный
Битрейт : 320 Кбит/сек
Каналы : 2 канала
Частота : 44,1 КГц
Метод сжатия : С потерями
Размер потока : 10,0 Мбайт (100%)
Библиотека кодирования : LAME3.98
Настройки программы : -m s -V 4 -q 0 -lowpass 20.5
Общее
Полное имя : D:\MEDIA\Audio\2008 - 100 Best Jazz\CD3 - Latin Jazz\06.GRANT GREEN - Mambo inn.mp3
Формат : MPEG Audio
Размер файла : 13,3 Мбайт
Продолжительность : 5 м. 48 с.
Режим общего битрейта : Постоянный
Общий поток : 320 Кбит/сек
Альбом : BEST JAZZ 100 - Disk3 Latin Jazz
Альбом/Исполнитель : Various
Трек : Mambo inn
Трек/Положение : 06
Исполнитель : GRANT GREEN
Библиотека кодирования : LAME3.98
Аудио
Формат : MPEG Audio
Версия формата : Version 1
Профиль формата : Layer 3
Продолжительность : 5 м. 48 с.
Вид битрейта : Постоянный
Битрейт : 320 Кбит/сек
Каналы : 2 канала
Частота : 44,1 КГц
Метод сжатия : С потерями
Размер потока : 13,3 Мбайт (100%)
Библиотека кодирования : LAME3.98
Настройки программы : -m s -V 4 -q 0 -lowpass 20.5
Общее
Полное имя : D:\MEDIA\Audio\2008 - 100 Best Jazz\CD3 - Latin Jazz\07.GERALD WILSON - Paco.mp3
Формат : MPEG Audio
Размер файла : 14,6 Мбайт
Продолжительность : 6 м. 22 с.
Режим общего битрейта : Постоянный
Общий поток : 320 Кбит/сек
Альбом : BEST JAZZ 100 - Disk3 Latin Jazz
Альбом/Исполнитель : Various
Трек : Paco
Трек/Положение : 07
Исполнитель : GERALD WILSON
Библиотека кодирования : LAME3.98
Аудио
Формат : MPEG Audio
Версия формата : Version 1
Профиль формата : Layer 3
Продолжительность : 6 м. 22 с.
Вид битрейта : Постоянный
Битрейт : 320 Кбит/сек
Каналы : 2 канала
Частота : 44,1 КГц
Метод сжатия : С потерями
Размер потока : 14,6 Мбайт (100%)
Библиотека кодирования : LAME3.98
Настройки программы : -m s -V 4 -q 0 -lowpass 20.5
Общее
Полное имя : D:\MEDIA\Audio\2008 - 100 Best Jazz\CD3 - Latin Jazz\08.THE JAZZ CRUSADERS - Agua dulce.mp3
Формат : MPEG Audio
Размер файла : 12,2 Мбайт
Продолжительность : 5 м. 19 с.
Режим общего битрейта : Постоянный
Общий поток : 320 Кбит/сек
Альбом : BEST JAZZ 100 - Disk3 Latin Jazz
Альбом/Исполнитель : Various
Трек : Agua dulce
Трек/Положение : 08
Исполнитель : THE JAZZ CRUSADERS
Библиотека кодирования : LAME3.98
Аудио
Формат : MPEG Audio
Версия формата : Version 1
Профиль формата : Layer 3
Продолжительность : 5 м. 19 с.
Вид битрейта : Постоянный
Битрейт : 320 Кбит/сек
Каналы : 2 канала
Частота : 44,1 КГц
Метод сжатия : С потерями
Размер потока : 12,2 Мбайт (100%)
Библиотека кодирования : LAME3.98
Настройки программы : -m s -V 4 -q 0 -lowpass 20.5
Общее
Полное имя : D:\MEDIA\Audio\2008 - 100 Best Jazz\CD3 - Latin Jazz\09.CLARE FISCHER - Favela.mp3
Формат : MPEG Audio
Размер файла : 8,79 Мбайт
Продолжительность : 3 м. 50 с.
Режим общего битрейта : Постоянный
Общий поток : 320 Кбит/сек
Альбом : BEST JAZZ 100 - Disk3 Latin Jazz
Альбом/Исполнитель : Various
Трек : Favela
Трек/Положение : 09
Исполнитель : CLARE FISCHER
Библиотека кодирования : LAME3.98
Аудио
Формат : MPEG Audio
Версия формата : Version 1
Профиль формата : Layer 3
Продолжительность : 3 м. 50 с.
Вид битрейта : Постоянный
Битрейт : 320 Кбит/сек
Каналы : 2 канала
Частота : 44,1 КГц
Метод сжатия : С потерями
Размер потока : 8,79 Мбайт (100%)
Библиотека кодирования : LAME3.98
Настройки программы : -m s -V 4 -q 0 -lowpass 20.5
Общее
Полное имя : D:\MEDIA\Audio\2008 - 100 Best Jazz\CD3 - Latin Jazz\10.CANDIDO - I'm on my way.mp3
Формат : MPEG Audio
Размер файла : 7,34 Мбайт
Продолжительность : 3 м. 12 с.
Режим общего битрейта : Постоянный
Общий поток : 320 Кбит/сек
Альбом : BEST JAZZ 100 - Disk3 Latin Jazz
Альбом/Исполнитель : Various
Трек : I'm on my way
Трек/Положение : 10
Исполнитель : CANDIDO
Библиотека кодирования : LAME3.98
Аудио
Формат : MPEG Audio
Версия формата : Version 1
Профиль формата : Layer 3
Продолжительность : 3 м. 12 с.
Вид битрейта : Постоянный
Битрейт : 320 Кбит/сек
Каналы : 2 канала
Частота : 44,1 КГц
Метод сжатия : С потерями
Размер потока : 7,33 Мбайт (100%)
Библиотека кодирования : LAME3.98
Настройки программы : -m s -V 4 -q 0 -lowpass 20.5
Общее
Полное имя : D:\MEDIA\Audio\2008 - 100 Best Jazz\CD3 - Latin Jazz\11.BOBBY HUTCHERSON - Oye como va.mp3
Формат : MPEG Audio
Размер файла : 11,8 Мбайт
Продолжительность : 5 м. 9 с.
Режим общего битрейта : Постоянный
Общий поток : 320 Кбит/сек
Альбом : BEST JAZZ 100 - Disk3 Latin Jazz
Альбом/Исполнитель : Various
Трек : Oye como va
Трек/Положение : 11
Исполнитель : BOBBY HUTCHERSON
Библиотека кодирования : LAME3.98
Аудио
Формат : MPEG Audio
Версия формата : Version 1
Профиль формата : Layer 3
Продолжительность : 5 м. 10 с.
Вид битрейта : Постоянный
Битрейт : 320 Кбит/сек
Каналы : 2 канала
Частота : 44,1 КГц
Метод сжатия : С потерями
Размер потока : 11,8 Мбайт (100%)
Библиотека кодирования : LAME3.98
Настройки программы : -m s -V 4 -q 0 -lowpass 20.5
Общее
Полное имя : D:\MEDIA\Audio\2008 - 100 Best Jazz\CD3 - Latin Jazz\12.CHUCHO VALDES - Caravan.mp3
Формат : MPEG Audio
Размер файла : 16,1 Мбайт
Продолжительность : 7 м. 1 с.
Режим общего битрейта : Постоянный
Общий поток : 320 Кбит/сек
Альбом : BEST JAZZ 100 - Disk3 Latin Jazz
Альбом/Исполнитель : Various
Трек : Caravan
Трек/Положение : 12
Исполнитель : CHUCHO VALDES
Библиотека кодирования : LAME3.98
Аудио
Формат : MPEG Audio
Версия формата : Version 1
Профиль формата : Layer 3
Продолжительность : 7 м. 2 с.
Вид битрейта : Постоянный
Битрейт : 320 Кбит/сек
Каналы : 2 канала
Частота : 44,1 КГц
Метод сжатия : С потерями
Размер потока : 16,1 Мбайт (100%)
Библиотека кодирования : LAME3.98
Настройки программы : -m s -V 4 -q 0 -lowpass 20.5
Общее
Полное имя : D:\MEDIA\Audio\2008 - 100 Best Jazz\CD3 - Latin Jazz\13.GONZALO RUBALCABA - Contagio.mp3
Формат : MPEG Audio
Размер файла : 15,3 Мбайт
Продолжительность : 6 м. 40 с.
Режим общего битрейта : Постоянный
Общий поток : 320 Кбит/сек
Альбом : BEST JAZZ 100 - Disk3 Latin Jazz
Альбом/Исполнитель : Various
Трек : Contagio
Трек/Положение : 13
Исполнитель : GONZALO RUBALCABA
Библиотека кодирования : LAME3.98
Аудио
Формат : MPEG Audio
Версия формата : Version 1
Профиль формата : Layer 3
Продолжительность : 6 м. 40 с.
Вид битрейта : Постоянный
Битрейт : 320 Кбит/сек
Каналы : 2 канала
Частота : 44,1 КГц
Метод сжатия : С потерями
Размер потока : 15,3 Мбайт (100%)
Библиотека кодирования : LAME3.98
Настройки программы : -m s -V 4 -q 0 -lowpass 20.5
Общее
Полное имя : D:\MEDIA\Audio\2008 - 100 Best Jazz\CD3 - Latin Jazz\14.RAY BARRETTO - Dance of denial.mp3
Формат : MPEG Audio
Размер файла : 13,4 Мбайт
Продолжительность : 5 м. 52 с.
Режим общего битрейта : Постоянный
Общий поток : 320 Кбит/сек
Альбом : BEST JAZZ 100 - Disk3 Latin Jazz
Альбом/Исполнитель : Various
Трек : Dance of denial
Трек/Положение : 14
Исполнитель : RAY BARRETTO
Библиотека кодирования : LAME3.98
Аудио
Формат : MPEG Audio
Версия формата : Version 1
Профиль формата : Layer 3
Продолжительность : 5 м. 52 с.
Вид битрейта : Постоянный
Битрейт : 320 Кбит/сек
Каналы : 2 канала
Частота : 44,1 КГц
Метод сжатия : С потерями
Размер потока : 13,4 Мбайт (100%)
Библиотека кодирования : LAME3.98
Настройки программы : -m s -V 4 -q 0 -lowpass 20.5
Общее
Полное имя : D:\MEDIA\Audio\2008 - 100 Best Jazz\CD3 - Latin Jazz\15.ELIANE ELIAS - The time is now.mp3
Формат : MPEG Audio
Размер файла : 10,7 Мбайт
Продолжительность : 4 м. 40 с.
Режим общего битрейта : Постоянный
Общий поток : 320 Кбит/сек
Альбом : BEST JAZZ 100 - Disk3 Latin Jazz
Альбом/Исполнитель : Various
Трек : The time is now
Трек/Положение : 15
Исполнитель : ELIANE ELIAS
Библиотека кодирования : LAME3.98
Аудио
Формат : MPEG Audio
Версия формата : Version 1
Профиль формата : Layer 3
Продолжительность : 4 м. 40 с.
Вид битрейта : Постоянный
Битрейт : 320 Кбит/сек
Каналы : 2 канала
Частота : 44,1 КГц
Метод сжатия : С потерями
Размер потока : 10,7 Мбайт (100%)
Библиотека кодирования : LAME3.98
Настройки программы : -m s -V 4 -q 0 -lowpass 20.5
Общее
Полное имя : D:\MEDIA\Audio\2008 - 100 Best Jazz\CD4 - Relaxing\01.LOU RAWLS & DIANNE REEVES - At last.mp3
Формат : MPEG Audio
Размер файла : 8,31 Мбайт
Продолжительность : 3 м. 37 с.
Режим общего битрейта : Постоянный
Общий поток : 320 Кбит/сек
Альбом : BEST JAZZ 100 - Disk4 Relaxing Jazz
Альбом/Исполнитель : Various
Трек : At last
Трек/Положение : 01
Исполнитель : LOU RAWLS & DIANNE REEVES
Библиотека кодирования : LAME3.98
Аудио
Формат : MPEG Audio
Версия формата : Version 1
Профиль формата : Layer 3
Продолжительность : 3 м. 37 с.
Вид битрейта : Постоянный
Битрейт : 320 Кбит/сек
Каналы : 2 канала
Частота : 44,1 КГц
Метод сжатия : С потерями
Размер потока : 8,31 Мбайт (100%)
Библиотека кодирования : LAME3.98
Настройки программы : -m s -V 4 -q 0 -lowpass 20.5
Общее
Полное имя : D:\MEDIA\Audio\2008 - 100 Best Jazz\CD4 - Relaxing\02.THE THREE SOUNDS - Makin' whoopee.mp3
Формат : MPEG Audio
Размер файла : 10,0 Мбайт
Продолжительность : 4 м. 22 с.
Режим общего битрейта : Постоянный
Общий поток : 320 Кбит/сек
Альбом : BEST JAZZ 100 - Disk4 Relaxing Jazz
Альбом/Исполнитель : Various
Трек : Makin' whoopee
Трек/Положение : 02
Исполнитель : THE THREE SOUNDS
Библиотека кодирования : LAME3.98
Аудио
Формат : MPEG Audio
Версия формата : Version 1
Профиль формата : Layer 3
Продолжительность : 4 м. 22 с.
Вид битрейта : Постоянный
Битрейт : 320 Кбит/сек
Каналы : 2 канала
Частота : 44,1 КГц
Метод сжатия : С потерями
Размер потока : 10,0 Мбайт (100%)
Библиотека кодирования : LAME3.98
Настройки программы : -m s -V 4 -q 0 -lowpass 20.5
Общее
Полное имя : D:\MEDIA\Audio\2008 - 100 Best Jazz\CD4 - Relaxing\03.SONNY ROLLINS - Namely you.mp3
Формат : MPEG Audio
Размер файла : 7,73 Мбайт
Продолжительность : 3 м. 22 с.
Режим общего битрейта : Постоянный
Общий поток : 320 Кбит/сек
Альбом : BEST JAZZ 100 - Disk4 Relaxing Jazz
Альбом/Исполнитель : Various
Трек : Namely you
Трек/Положение : 03
Исполнитель : SONNY ROLLINS
Библиотека кодирования : LAME3.98
Аудио
Формат : MPEG Audio
Версия формата : Version 1
Профиль формата : Layer 3
Продолжительность : 3 м. 22 с.
Вид битрейта : Постоянный
Битрейт : 320 Кбит/сек
Каналы : 2 канала
Частота : 44,1 КГц
Метод сжатия : С потерями
Размер потока : 7,73 Мбайт (100%)
Библиотека кодирования : LAME3.98
Настройки программы : -m s -V 4 -q 0 -lowpass 20.5
Общее
Полное имя : D:\MEDIA\Audio\2008 - 100 Best Jazz\CD4 - Relaxing\04.CASSANDRA WILSON - Time after time.mp3
Формат : MPEG Audio
Размер файла : 9,50 Мбайт
Продолжительность : 4 м. 9 с.
Режим общего битрейта : Постоянный
Общий поток : 320 Кбит/сек
Альбом : BEST JAZZ 100 - Disk4 Relaxing Jazz
Альбом/Исполнитель : Various
Трек : Time after time
Трек/Положение : 04
Исполнитель : CASSANDRA WILSON
Библиотека кодирования : LAME3.98
Аудио
Формат : MPEG Audio
Версия формата : Version 1
Профиль формата : Layer 3
Продолжительность : 4 м. 9 с.
Вид битрейта : Постоянный
Битрейт : 320 Кбит/сек
Каналы : 2 канала
Частота : 44,1 КГц
Метод сжатия : С потерями
Размер потока : 9,50 Мбайт (100%)
Библиотека кодирования : LAME3.98
Настройки программы : -m s -V 4 -q 0 -lowpass 20.5
Общее
Полное имя : D:\MEDIA\Audio\2008 - 100 Best Jazz\CD4 - Relaxing\05.WAYNE SHORTER - Infant eyes.mp3
Формат : MPEG Audio
Размер файла : 15,8 Мбайт
Продолжительность : 6 м. 54 с.
Режим общего битрейта : Постоянный
Общий поток : 320 Кбит/сек
Альбом : BEST JAZZ 100 - Disk4 Relaxing Jazz
Альбом/Исполнитель : Various
Трек : Infant eyes
Трек/Положение : 05
Исполнитель : WAYNE SHORTER
Библиотека кодирования : LAME3.98
Аудио
Формат : MPEG Audio
Версия формата : Version 1
Профиль формата : Layer 3
Продолжительность : 6 м. 54 с.
Вид битрейта : Постоянный
Битрейт : 320 Кбит/сек
Каналы : 2 канала
Частота : 44,1 КГц
Метод сжатия : С потерями
Размер потока : 15,8 Мбайт (100%)
Библиотека кодирования : LAME3.98
Настройки программы : -m s -V 4 -q 0 -lowpass 20.5
Общее
Полное имя : D:\MEDIA\Audio\2008 - 100 Best Jazz\CD4 - Relaxing\06.KURT ELLING - In the winelight.mp3
Формат : MPEG Audio
Размер файла : 15,3 Мбайт
Продолжительность : 6 м. 40 с.
Режим общего битрейта : Постоянный
Общий поток : 320 Кбит/сек
Альбом : BEST JAZZ 100 - Disk4 Relaxing Jazz
Альбом/Исполнитель : Various
Трек : In the winelight
Трек/Положение : 06
Исполнитель : KURT ELLING
Библиотека кодирования : LAME3.98
Аудио
Формат : MPEG Audio
Версия формата : Version 1
Профиль формата : Layer 3
Продолжительность : 6 м. 41 с.
Вид битрейта : Постоянный
Битрейт : 320 Кбит/сек
Каналы : 2 канала
Частота : 44,1 КГц
Метод сжатия : С потерями
Размер потока : 15,3 Мбайт (100%)
Библиотека кодирования : LAME3.98
Настройки программы : -m s -V 4 -q 0 -lowpass 20.5
Общее
Полное имя : D:\MEDIA\Audio\2008 - 100 Best Jazz\CD4 - Relaxing\07.HERBIE HANCOCK - Cantaloupe Island.mp3
Формат : MPEG Audio
Размер файла : 12,6 Мбайт
Продолжительность : 5 м. 30 с.
Режим общего битрейта : Постоянный
Общий поток : 320 Кбит/сек
Альбом : BEST JAZZ 100 - Disk4 Relaxing Jazz
Альбом/Исполнитель : Various
Трек : Cantaloupe Island
Трек/Положение : 07
Исполнитель : HERBIE HANCOCK
Библиотека кодирования : LAME3.98
Аудио
Формат : MPEG Audio
Версия формата : Version 1
Профиль формата : Layer 3
Продолжительность : 5 м. 31 с.
Вид битрейта : Постоянный
Битрейт : 320 Кбит/сек
Каналы : 2 канала
Частота : 44,1 КГц
Метод сжатия : С потерями
Размер потока : 12,6 Мбайт (100%)
Библиотека кодирования : LAME3.98
Настройки программы : -m s -V 4 -q 0 -lowpass 20.5
Общее
Полное имя : D:\MEDIA\Audio\2008 - 100 Best Jazz\CD4 - Relaxing\08.CHARLIE HUNTER & NORAH JONES - More than this.mp3
Формат : MPEG Audio
Размер файла : 9,54 Мбайт
Продолжительность : 4 м. 10 с.
Режим общего битрейта : Постоянный
Общий поток : 320 Кбит/сек
Альбом : BEST JAZZ 100 - Disk4 Relaxing Jazz
Альбом/Исполнитель : Various
Трек : More than this
Трек/Положение : 08
Исполнитель : CHARLIE HUNTER & NORAH JONES
Библиотека кодирования : LAME3.98
Аудио
Формат : MPEG Audio
Версия формата : Version 1
Профиль формата : Layer 3
Продолжительность : 4 м. 10 с.
Вид битрейта : Постоянный
Битрейт : 320 Кбит/сек
Каналы : 2 канала
Частота : 44,1 КГц
Метод сжатия : С потерями
Размер потока : 9,54 Мбайт (100%)
Библиотека кодирования : LAME3.98
Настройки программы : -m s -V 4 -q 0 -lowpass 20.5
Общее
Полное имя : D:\MEDIA\Audio\2008 - 100 Best Jazz\CD4 - Relaxing\09.JOE HENDERSON - Beatrice.mp3
Формат : MPEG Audio
Размер файла : 13,0 Мбайт
Продолжительность : 5 м. 39 с.
Режим общего битрейта : Постоянный
Общий поток : 320 Кбит/сек
Альбом : BEST JAZZ 100 - Disk4 Relaxing Jazz
Альбом/Исполнитель : Various
Трек : Beatrice
Трек/Положение : 09
Исполнитель : JOE HENDERSON
Библиотека кодирования : LAME3.98
Аудио
Формат : MPEG Audio
Версия формата : Version 1
Профиль формата : Layer 3
Продолжительность : 5 м. 39 с.
Вид битрейта : Постоянный
Битрейт : 320 Кбит/сек
Каналы : 2 канала
Частота : 44,1 КГц
Метод сжатия : С потерями
Размер потока : 13,0 Мбайт (100%)
Библиотека кодирования : LAME3.98
Настройки программы : -m s -V 4 -q 0 -lowpass 20.5
Общее
Полное имя : D:\MEDIA\Audio\2008 - 100 Best Jazz\CD4 - Relaxing\10.JACKIE ALLEN - Lazy afternoon.mp3
Формат : MPEG Audio
Размер файла : 8,95 Мбайт
Продолжительность : 3 м. 54 с.
Режим общего битрейта : Постоянный
Общий поток : 320 Кбит/сек
Альбом : BEST JAZZ 100 - Disk4 Relaxing Jazz
Альбом/Исполнитель : Various
Трек : Lazy afternoon
Трек/Положение : 10
Исполнитель : JACKIE ALLEN
Библиотека кодирования : LAME3.98
Аудио
Формат : MPEG Audio
Версия формата : Version 1
Профиль формата : Layer 3
Продолжительность : 3 м. 54 с.
Вид битрейта : Постоянный
Битрейт : 320 Кбит/сек
Каналы : 2 канала
Частота : 44,1 КГц
Метод сжатия : С потерями
Размер потока : 8,95 Мбайт (100%)
Библиотека кодирования : LAME3.98
Настройки программы : -m s -V 4 -q 0 -lowpass 20.5
Общее
Полное имя : D:\MEDIA\Audio\2008 - 100 Best Jazz\CD4 - Relaxing\11.JOE LOVANO - I've got the world on a string.mp3
Формат : MPEG Audio
Размер файла : 9,96 Мбайт
Продолжительность : 4 м. 20 с.
Режим общего битрейта : Постоянный
Общий поток : 320 Кбит/сек
Альбом : BEST JAZZ 100 - Disk4 Relaxing Jazz
Альбом/Исполнитель : Various
Трек : I've got the world on a string
Трек/Положение : 11
Исполнитель : JOE LOVANO
Библиотека кодирования : LAME3.98
Аудио
Формат : MPEG Audio
Версия формата : Version 1
Профиль формата : Layer 3
Продолжительность : 4 м. 21 с.
Вид битрейта : Постоянный
Битрейт : 320 Кбит/сек
Каналы : 2 канала
Частота : 44,1 КГц
Метод сжатия : С потерями
Размер потока : 9,95 Мбайт (100%)
Библиотека кодирования : LAME3.98
Настройки программы : -m s -V 4 -q 0 -lowpass 20.5
Общее
Полное имя : D:\MEDIA\Audio\2008 - 100 Best Jazz\CD4 - Relaxing\12.HOLLY COLE - Make it go away.mp3
Формат : MPEG Audio
Размер файла : 9,12 Мбайт
Продолжительность : 3 м. 58 с.
Режим общего битрейта : Постоянный
Общий поток : 320 Кбит/сек
Альбом : BEST JAZZ 100 - Disk4 Relaxing Jazz
Альбом/Исполнитель : Various
Трек : Make it go away
Трек/Положение : 12
Исполнитель : HOLLY COLE
Библиотека кодирования : LAME3.98
Аудио
Формат : MPEG Audio
Версия формата : Version 1
Профиль формата : Layer 3
Продолжительность : 3 м. 59 с.
Вид битрейта : Постоянный
Битрейт : 320 Кбит/сек
Каналы : 2 канала
Частота : 44,1 КГц
Метод сжатия : С потерями
Размер потока : 9,11 Мбайт (100%)
Библиотека кодирования : LAME3.98
Настройки программы : -m s -V 4 -q 0 -lowpass 20.5
Общее
Полное имя : D:\MEDIA\Audio\2008 - 100 Best Jazz\CD4 - Relaxing\13.STEFON HARRIS & JACKY TERRASSON - Dejа vu.mp3
Формат : MPEG Audio
Размер файла : 11,9 Мбайт
Продолжительность : 5 м. 11 с.
Режим общего битрейта : Постоянный
Общий поток : 320 Кбит/сек
Альбом : BEST JAZZ 100 - Disk4 Relaxing Jazz
Альбом/Исполнитель : Various
Трек : Dejà vu
Трек/Положение : 13
Исполнитель : STEFON HARRIS & JACKY TERRASSON
Библиотека кодирования : LAME3.98
Аудио
Формат : MPEG Audio
Версия формата : Version 1
Профиль формата : Layer 3
Продолжительность : 5 м. 11 с.
Вид битрейта : Постоянный
Битрейт : 320 Кбит/сек
Каналы : 2 канала
Частота : 44,1 КГц
Метод сжатия : С потерями
Размер потока : 11,9 Мбайт (100%)
Библиотека кодирования : LAME3.98
Настройки программы : -m s -V 4 -q 0 -lowpass 20.5
Общее
Полное имя : D:\MEDIA\Audio\2008 - 100 Best Jazz\CD4 - Relaxing\14.BOBBY McFERRIN - Don't worry be happy.mp3
Формат : MPEG Audio
Размер файла : 11,1 Мбайт
Продолжительность : 4 м. 50 с.
Режим общего битрейта : Постоянный
Общий поток : 320 Кбит/сек
Альбом : BEST JAZZ 100 - Disk4 Relaxing Jazz
Альбом/Исполнитель : Various
Трек : Don't worry be happy
Трек/Положение : 14
Исполнитель : BOBBY McFERRIN
Библиотека кодирования : LAME3.98
Аудио
Формат : MPEG Audio
Версия формата : Version 1
Профиль формата : Layer 3
Продолжительность : 4 м. 50 с.
Вид битрейта : Постоянный
Битрейт : 320 Кбит/сек
Каналы : 2 канала
Частота : 44,1 КГц
Метод сжатия : С потерями
Размер потока : 11,1 Мбайт (100%)
Библиотека кодирования : LAME3.98
Настройки программы : -m s -V 4 -q 0 -lowpass 20.5
Общее
Полное имя : D:\MEDIA\Audio\2008 - 100 Best Jazz\CD5 - Jazz Ballads\01.COLEMAN HAWKINS - Someone to watch over me.mp3
Формат : MPEG Audio
Размер файла : 6,43 Мбайт
Продолжительность : 2 м. 48 с.
Режим общего битрейта : Постоянный
Общий поток : 320 Кбит/сек
Альбом : BEST JAZZ 100 - Disk5 Jazz Ballads
Альбом/Исполнитель : Various
Трек : Someone to watch over me
Трек/Положение : 01
Исполнитель : COLEMAN HAWKINS
Библиотека кодирования : LAME3.98
Аудио
Формат : MPEG Audio
Версия формата : Version 1
Профиль формата : Layer 3
Продолжительность : 2 м. 48 с.
Вид битрейта : Постоянный
Битрейт : 320 Кбит/сек
Каналы : 2 канала
Частота : 44,1 КГц
Метод сжатия : С потерями
Размер потока : 6,43 Мбайт (100%)
Библиотека кодирования : LAME3.98
Настройки программы : -m s -V 4 -q 0 -lowpass 20.5
Общее
Полное имя : D:\MEDIA\Audio\2008 - 100 Best Jazz\CD5 - Jazz Ballads\02.CLIFFORD BROWN - Easy living.mp3
Формат : MPEG Audio
Размер файла : 8,56 Мбайт
Продолжительность : 3 м. 44 с.
Режим общего битрейта : Постоянный
Общий поток : 320 Кбит/сек
Альбом : BEST JAZZ 100 - Disk5 Jazz Ballads
Альбом/Исполнитель : Various
Трек : Easy living
Трек/Положение : 02
Исполнитель : CLIFFORD BROWN
Библиотека кодирования : LAME3.98
Аудио
Формат : MPEG Audio
Версия формата : Version 1
Профиль формата : Layer 3
Продолжительность : 3 м. 44 с.
Вид битрейта : Постоянный
Битрейт : 320 Кбит/сек
Каналы : 2 канала
Частота : 44,1 КГц
Метод сжатия : С потерями
Размер потока : 8,56 Мбайт (100%)
Библиотека кодирования : LAME3.98
Настройки программы : -m s -V 4 -q 0 -lowpass 20.5
Общее
Полное имя : D:\MEDIA\Audio\2008 - 100 Best Jazz\CD5 - Jazz Ballads\03.MILES DAVIS - It never entered my mind.mp3
Формат : MPEG Audio
Размер файла : 9,31 Мбайт
Продолжительность : 4 м. 3 с.
Режим общего битрейта : Постоянный
Общий поток : 320 Кбит/сек
Альбом : BEST JAZZ 100 - Disk5 Jazz Ballads
Альбом/Исполнитель : Various
Трек : It never entered my mind
Трек/Положение : 03
Исполнитель : MILES DAVIS
Библиотека кодирования : LAME3.98
Аудио
Формат : MPEG Audio
Версия формата : Version 1
Профиль формата : Layer 3
Продолжительность : 4 м. 4 с.
Вид битрейта : Постоянный
Битрейт : 320 Кбит/сек
Каналы : 2 канала
Частота : 44,1 КГц
Метод сжатия : С потерями
Размер потока : 9,31 Мбайт (100%)
Библиотека кодирования : LAME3.98
Настройки программы : -m s -V 4 -q 0 -lowpass 20.5
Общее
Полное имя : D:\MEDIA\Audio\2008 - 100 Best Jazz\CD5 - Jazz Ballads\04.JUTTA HIPP & ZOOT SIMS - Violets for your furs.mp3
Формат : MPEG Audio
Размер файла : 14,2 Мбайт
Продолжительность : 6 м. 11 с.
Режим общего битрейта : Постоянный
Общий поток : 320 Кбит/сек
Альбом : BEST JAZZ 100 - Disk5 Jazz Ballads
Альбом/Исполнитель : Various
Трек : Violets for your furs
Трек/Положение : 04
Исполнитель : JUTTA HIPP & ZOOT SIMS
Библиотека кодирования : LAME3.98
Аудио
Формат : MPEG Audio
Версия формата : Version 1
Профиль формата : Layer 3
Продолжительность : 6 м. 12 с.
Вид битрейта : Постоянный
Битрейт : 320 Кбит/сек
Каналы : 2 канала
Частота : 44,1 КГц
Метод сжатия : С потерями
Размер потока : 14,2 Мбайт (100%)
Библиотека кодирования : LAME3.98
Настройки программы : -m s -V 4 -q 0 -lowpass 20.5
Общее
Полное имя : D:\MEDIA\Audio\2008 - 100 Best Jazz\CD5 - Jazz Ballads\05.BENNY GOODMAN - Moonglow.mp3
Формат : MPEG Audio
Размер файла : 7,93 Мбайт
Продолжительность : 3 м. 27 с.
Режим общего битрейта : Постоянный
Общий поток : 320 Кбит/сек
Альбом : BEST JAZZ 100 - Disk5 Jazz Ballads
Альбом/Исполнитель : Various
Трек : Moonglow
Трек/Положение : 05
Исполнитель : BENNY GOODMAN
Библиотека кодирования : LAME3.98
Аудио
Формат : MPEG Audio
Версия формата : Version 1
Профиль формата : Layer 3
Продолжительность : 3 м. 28 с.
Вид битрейта : Постоянный
Битрейт : 320 Кбит/сек
Каналы : 2 канала
Частота : 44,1 КГц
Метод сжатия : С потерями
Размер потока : 7,93 Мбайт (100%)
Библиотека кодирования : LAME3.98
Настройки программы : -m s -V 4 -q 0 -lowpass 20.5
Общее
Полное имя : D:\MEDIA\Audio\2008 - 100 Best Jazz\CD5 - Jazz Ballads\06.GEORGE SHEARING - Like someone il love.mp3
Формат : MPEG Audio
Размер файла : 9,13 Мбайт
Продолжительность : 3 м. 59 с.
Режим общего битрейта : Постоянный
Общий поток : 320 Кбит/сек
Альбом : BEST JAZZ 100 - Disk5 Jazz Ballads
Альбом/Исполнитель : Various
Трек : Like someone il love
Трек/Положение : 06
Исполнитель : GEORGE SHEARING
Библиотека кодирования : LAME3.98
Аудио
Формат : MPEG Audio
Версия формата : Version 1
Профиль формата : Layer 3
Продолжительность : 3 м. 59 с.
Вид битрейта : Постоянный
Битрейт : 320 Кбит/сек
Каналы : 2 канала
Частота : 44,1 КГц
Метод сжатия : С потерями
Размер потока : 9,13 Мбайт (100%)
Библиотека кодирования : LAME3.98
Настройки программы : -m s -V 4 -q 0 -lowpass 20.5
Общее
Полное имя : D:\MEDIA\Audio\2008 - 100 Best Jazz\CD5 - Jazz Ballads\07.BILL EVANS & JIM HALL - Stairway to the stars.mp3
Формат : MPEG Audio
Размер файла : 13,0 Мбайт
Продолжительность : 5 м. 41 с.
Режим общего битрейта : Постоянный
Общий поток : 320 Кбит/сек
Альбом : BEST JAZZ 100 - Disk5 Jazz Ballads
Альбом/Исполнитель : Various
Трек : Stairway to the stars
Трек/Положение : 07
Исполнитель : BILL EVANS & JIM HALL
Библиотека кодирования : LAME3.98
Аудио
Формат : MPEG Audio
Версия формата : Version 1
Профиль формата : Layer 3
Продолжительность : 5 м. 41 с.
Вид битрейта : Постоянный
Битрейт : 320 Кбит/сек
Каналы : 2 канала
Частота : 44,1 КГц
Метод сжатия : С потерями
Размер потока : 13,0 Мбайт (100%)
Библиотека кодирования : LAME3.98
Настройки программы : -m s -V 4 -q 0 -lowpass 20.5
Общее
Полное имя : D:\MEDIA\Audio\2008 - 100 Best Jazz\CD5 - Jazz Ballads\08.CANNONBALL ADDERLEY - Dancing in the dark.mp3
Формат : MPEG Audio
Размер файла : 9,41 Мбайт
Продолжительность : 4 м. 6 с.
Режим общего битрейта : Постоянный
Общий поток : 320 Кбит/сек
Альбом : BEST JAZZ 100 - Disk5 Jazz Ballads
Альбом/Исполнитель : Various
Трек : Dancing in the dark
Трек/Положение : 08
Исполнитель : CANNONBALL ADDERLEY
Библиотека кодирования : LAME3.98
Аудио
Формат : MPEG Audio
Версия формата : Version 1
Профиль формата : Layer 3
Продолжительность : 4 м. 6 с.
Вид битрейта : Постоянный
Битрейт : 320 Кбит/сек
Каналы : 2 канала
Частота : 44,1 КГц
Метод сжатия : С потерями
Размер потока : 9,41 Мбайт (100%)
Библиотека кодирования : LAME3.98
Настройки программы : -m s -V 4 -q 0 -lowpass 20.5
Общее
Полное имя : D:\MEDIA\Audio\2008 - 100 Best Jazz\CD5 - Jazz Ballads\09.DEXTER GORDON - I'm a fool to want you.mp3
Формат : MPEG Audio
Размер файла : 15,5 Мбайт
Продолжительность : 6 м. 45 с.
Режим общего битрейта : Постоянный
Общий поток : 320 Кбит/сек
Альбом : BEST JAZZ 100 - Disk5 Jazz Ballads
Альбом/Исполнитель : Various
Трек : I'm a fool to want you
Трек/Положение : 09
Исполнитель : DEXTER GORDON
Библиотека кодирования : LAME3.98
Аудио
Формат : MPEG Audio
Версия формата : Version 1
Профиль формата : Layer 3
Продолжительность : 6 м. 46 с.
Вид битрейта : Постоянный
Битрейт : 320 Кбит/сек
Каналы : 2 канала
Частота : 44,1 КГц
Метод сжатия : С потерями
Размер потока : 15,5 Мбайт (100%)
Библиотека кодирования : LAME3.98
Настройки программы : -m s -V 4 -q 0 -lowpass 20.5
Общее
Полное имя : D:\MEDIA\Audio\2008 - 100 Best Jazz\CD5 - Jazz Ballads\10.STAN KENTON AND HIS ORCHESTRA - Yesterdays.mp3
Формат : MPEG Audio
Размер файла : 12,9 Мбайт
Продолжительность : 5 м. 37 с.
Режим общего битрейта : Постоянный
Общий поток : 320 Кбит/сек
Альбом : BEST JAZZ 100 - Disk5 Jazz Ballads
Альбом/Исполнитель : Various
Трек : Yesterdays
Трек/Положение : 10
Исполнитель : STAN KENTON AND HIS ORCHESTRA
Библиотека кодирования : LAME3.98
Аудио
Формат : MPEG Audio
Версия формата : Version 1
Профиль формата : Layer 3
Продолжительность : 5 м. 38 с.
Вид битрейта : Постоянный
Битрейт : 320 Кбит/сек
Каналы : 2 канала
Частота : 44,1 КГц
Метод сжатия : С потерями
Размер потока : 12,9 Мбайт (100%)
Библиотека кодирования : LAME3.98
Настройки программы : -m s -V 4 -q 0 -lowpass 20.5
Общее
Полное имя : D:\MEDIA\Audio\2008 - 100 Best Jazz\CD5 - Jazz Ballads\11.HANK MOBLEY - The good life.mp3
Формат : MPEG Audio
Размер файла : 11,9 Мбайт
Продолжительность : 5 м. 12 с.
Режим общего битрейта : Постоянный
Общий поток : 320 Кбит/сек
Альбом : BEST JAZZ 100 - Disk5 Jazz Ballads
Альбом/Исполнитель : Various
Трек : The good life
Трек/Положение : 11
Исполнитель : HANK MOBLEY
Библиотека кодирования : LAME3.98
Аудио
Формат : MPEG Audio
Версия формата : Version 1
Профиль формата : Layer 3
Продолжительность : 5 м. 12 с.
Вид битрейта : Постоянный
Битрейт : 320 Кбит/сек
Каналы : 2 канала
Частота : 44,1 КГц
Метод сжатия : С потерями
Размер потока : 11,9 Мбайт (100%)
Библиотека кодирования : LAME3.98
Настройки программы : -m s -V 4 -q 0 -lowpass 20.5
Общее
Полное имя : D:\MEDIA\Audio\2008 - 100 Best Jazz\CD5 - Jazz Ballads\12.STANLEY TURRENTINE - God bless the child.mp3
Формат : MPEG Audio
Размер файла : 9,13 Мбайт
Продолжительность : 3 м. 59 с.
Режим общего битрейта : Постоянный
Общий поток : 320 Кбит/сек
Альбом : BEST JAZZ 100 - Disk5 Jazz Ballads
Альбом/Исполнитель : Various
Трек : God bless the child
Трек/Положение : 12
Исполнитель : STANLEY TURRENTINE
Библиотека кодирования : LAME3.98
Аудио
Формат : MPEG Audio
Версия формата : Version 1
Профиль формата : Layer 3
Продолжительность : 3 м. 59 с.
Вид битрейта : Постоянный
Битрейт : 320 Кбит/сек
Каналы : 2 канала
Частота : 44,1 КГц
Метод сжатия : С потерями
Размер потока : 9,13 Мбайт (100%)
Библиотека кодирования : LAME3.98
Настройки программы : -m s -V 4 -q 0 -lowpass 20.5
Общее
Полное имя : D:\MEDIA\Audio\2008 - 100 Best Jazz\CD5 - Jazz Ballads\13.IKE QUEBEC - Nature boy.mp3
Формат : MPEG Audio
Размер файла : 6,32 Мбайт
Продолжительность : 2 м. 45 с.
Режим общего битрейта : Постоянный
Общий поток : 320 Кбит/сек
Альбом : BEST JAZZ 100 - Disk5 Jazz Ballads
Альбом/Исполнитель : Various
Трек : Nature boy
Трек/Положение : 13
Исполнитель : IKE QUEBEC
Библиотека кодирования : LAME3.98
Аудио
Формат : MPEG Audio
Версия формата : Version 1
Профиль формата : Layer 3
Продолжительность : 2 м. 45 с.
Вид битрейта : Постоянный
Битрейт : 320 Кбит/сек
Каналы : 2 канала
Частота : 44,1 КГц
Метод сжатия : С потерями
Размер потока : 6,32 Мбайт (100%)
Библиотека кодирования : LAME3.98
Настройки программы : -m s -V 4 -q 0 -lowpass 20.5
Общее
Полное имя : D:\MEDIA\Audio\2008 - 100 Best Jazz\CD5 - Jazz Ballads\14.ZOOT SIMS - Spring can really hang you up the most.mp3
Формат : MPEG Audio
Размер файла : 7,27 Мбайт
Продолжительность : 3 м. 10 с.
Режим общего битрейта : Постоянный
Общий поток : 320 Кбит/сек
Альбом : BEST JAZZ 100 - Disk5 Jazz Ballads
Альбом/Исполнитель : Various
Трек : Spring can really hang you up the most
Трек/Положение : 14
Исполнитель : ZOOT SIMS
Библиотека кодирования : LAME3.98
Аудио
Формат : MPEG Audio
Версия формата : Version 1
Профиль формата : Layer 3
Продолжительность : 3 м. 10 с.
Вид битрейта : Постоянный
Битрейт : 320 Кбит/сек
Каналы : 2 канала
Частота : 44,1 КГц
Метод сжатия : С потерями
Размер потока : 7,27 Мбайт (100%)
Библиотека кодирования : LAME3.98
Настройки программы : -m s -V 4 -q 0 -lowpass 20.5
Общее
Полное имя : D:\MEDIA\Audio\2008 - 100 Best Jazz\CD5 - Jazz Ballads\15.JOE LOVANO - Laura.mp3
Формат : MPEG Audio
Размер файла : 10,5 Мбайт
Продолжительность : 4 м. 34 с.
Режим общего битрейта : Постоянный
Общий поток : 320 Кбит/сек
Альбом : BEST JAZZ 100 - Disk5 Jazz Ballads
Альбом/Исполнитель : Various
Трек : Laura
Трек/Положение : 15
Исполнитель : JOE LOVANO
Библиотека кодирования : LAME3.98
Аудио
Формат : MPEG Audio
Версия формата : Version 1
Профиль формата : Layer 3
Продолжительность : 4 м. 34 с.
Вид битрейта : Постоянный
Битрейт : 320 Кбит/сек
Каналы : 2 канала
Частота : 44,1 КГц
Метод сжатия : С потерями
Размер потока : 10,5 Мбайт (100%)
Библиотека кодирования : LAME3.98
Настройки программы : -m s -V 4 -q 0 -lowpass 20.5
Общее
Полное имя : D:\MEDIA\Audio\2008 - 100 Best Jazz\CD6 - Legends of Jazz\01.ALBERT AMMONS - Boogie woogie stomp.mp3
Формат : MPEG Audio
Размер файла : 8,27 Мбайт
Продолжительность : 3 м. 36 с.
Режим общего битрейта : Постоянный
Общий поток : 320 Кбит/сек
Альбом : BEST JAZZ 100 - Disk6 Legends of Jazz
Альбом/Исполнитель : Various
Трек : Boogie woogie stomp
Трек/Положение : 01
Исполнитель : ALBERT AMMONS
Библиотека кодирования : LAME3.98
Аудио
Формат : MPEG Audio
Версия формата : Version 1
Профиль формата : Layer 3
Продолжительность : 3 м. 36 с.
Вид битрейта : Постоянный
Битрейт : 320 Кбит/сек
Каналы : 2 канала
Частота : 44,1 КГц
Метод сжатия : С потерями
Размер потока : 8,26 Мбайт (100%)
Библиотека кодирования : LAME3.98
Настройки программы : -m s -V 4 -q 0 -lowpass 20.5
Общее
Полное имя : D:\MEDIA\Audio\2008 - 100 Best Jazz\CD6 - Legends of Jazz\02.SIDNEY BECHET - Summertime.mp3
Формат : MPEG Audio
Размер файла : 9,59 Мбайт
Продолжительность : 4 м. 11 с.
Режим общего битрейта : Постоянный
Общий поток : 320 Кбит/сек
Альбом : BEST JAZZ 100 - Disk6 Legends of Jazz
Альбом/Исполнитель : Various
Трек : Summertime
Трек/Положение : 02
Исполнитель : SIDNEY BECHET
Библиотека кодирования : LAME3.98
Аудио
Формат : MPEG Audio
Версия формата : Version 1
Профиль формата : Layer 3
Продолжительность : 4 м. 11 с.
Вид битрейта : Постоянный
Битрейт : 320 Кбит/сек
Каналы : 2 канала
Частота : 44,1 КГц
Метод сжатия : С потерями
Размер потока : 9,59 Мбайт (100%)
Библиотека кодирования : LAME3.98
Настройки программы : -m s -V 4 -q 0 -lowpass 20.5
Общее
Полное имя : D:\MEDIA\Audio\2008 - 100 Best Jazz\CD6 - Legends of Jazz\03.MEADE LUX LEWIS - Chicago flyer.mp3
Формат : MPEG Audio
Размер файла : 9,16 Мбайт
Продолжительность : 4 м. 0 с.
Режим общего битрейта : Постоянный
Общий поток : 320 Кбит/сек
Альбом : BEST JAZZ 100 - Disk6 Legends of Jazz
Альбом/Исполнитель : Various
Трек : Chicago flyer
Трек/Положение : 03
Исполнитель : MEADE LUX LEWIS
Библиотека кодирования : LAME3.98
Аудио
Формат : MPEG Audio
Версия формата : Version 1
Профиль формата : Layer 3
Продолжительность : 4 м. 0 с.
Вид битрейта : Постоянный
Битрейт : 320 Кбит/сек
Каналы : 2 канала
Частота : 44,1 КГц
Метод сжатия : С потерями
Размер потока : 9,16 Мбайт (100%)
Библиотека кодирования : LAME3.98
Настройки программы : -m s -V 4 -q 0 -lowpass 20.5
Общее
Полное имя : D:\MEDIA\Audio\2008 - 100 Best Jazz\CD6 - Legends of Jazz\04.EDMOND HALL'S CELESTE QUARTET - Profoundly blue.mp3
Формат : MPEG Audio
Размер файла : 9,56 Мбайт
Продолжительность : 4 м. 10 с.
Режим общего битрейта : Постоянный
Общий поток : 320 Кбит/сек
Альбом : BEST JAZZ 100 - Disk6 Legends of Jazz
Альбом/Исполнитель : Various
Трек : Profoundly blue
Трек/Положение : 04
Исполнитель : EDMOND HALL'S CELESTE QUARTET
Библиотека кодирования : LAME3.98
Аудио
Формат : MPEG Audio
Версия формата : Version 1
Профиль формата : Layer 3
Продолжительность : 4 м. 10 с.
Вид битрейта : Постоянный
Битрейт : 320 Кбит/сек
Каналы : 2 канала
Частота : 44,1 КГц
Метод сжатия : С потерями
Размер потока : 9,55 Мбайт (100%)
Библиотека кодирования : LAME3.98
Настройки программы : -m s -V 4 -q 0 -lowpass 20.5
Общее
Полное имя : D:\MEDIA\Audio\2008 - 100 Best Jazz\CD6 - Legends of Jazz\05.IKE QUEBEC - Topsy.mp3
Формат : MPEG Audio
Размер файла : 7,00 Мбайт
Продолжительность : 3 м. 3 с.
Режим общего битрейта : Постоянный
Общий поток : 320 Кбит/сек
Альбом : BEST JAZZ 100 - Disk6 Legends of Jazz
Альбом/Исполнитель : Various
Трек : Topsy
Трек/Положение : 05
Исполнитель : IKE QUEBEC
Библиотека кодирования : LAME3.98
Аудио
Формат : MPEG Audio
Версия формата : Version 1
Профиль формата : Layer 3
Продолжительность : 3 м. 3 с.
Вид битрейта : Постоянный
Битрейт : 320 Кбит/сек
Каналы : 2 канала
Частота : 44,1 КГц
Метод сжатия : С потерями
Размер потока : 7,00 Мбайт (100%)
Библиотека кодирования : LAME3.98
Настройки программы : -m s -V 4 -q 0 -lowpass 20.5
Общее
Полное имя : D:\MEDIA\Audio\2008 - 100 Best Jazz\CD6 - Legends of Jazz\06.JIMMY HAMILTON & THE DUKE'S MEN - Blues for clarinets.mp3
Формат : MPEG Audio
Размер файла : 9,96 Мбайт
Продолжительность : 4 м. 21 с.
Режим общего битрейта : Постоянный
Общий поток : 320 Кбит/сек
Альбом : BEST JAZZ 100 - Disk6 Legends of Jazz
Альбом/Исполнитель : Various
Трек : Blues for clarinets
Трек/Положение : 06
Исполнитель : JIMMY HAMILTON & THE DUKE'S MEN
Библиотека кодирования : LAME3.98
Аудио
Формат : MPEG Audio
Версия формата : Version 1
Профиль формата : Layer 3
Продолжительность : 4 м. 21 с.
Вид битрейта : Постоянный
Битрейт : 320 Кбит/сек
Каналы : 2 канала
Частота : 44,1 КГц
Метод сжатия : С потерями
Размер потока : 9,96 Мбайт (100%)
Библиотека кодирования : LAME3.98
Настройки программы : -m s -V 4 -q 0 -lowpass 20.5
Общее
Полное имя : D:\MEDIA\Audio\2008 - 100 Best Jazz\CD6 - Legends of Jazz\07.BABS GONZALES' THREE BIPS AND A BOP - Lop-pow.mp3
Формат : MPEG Audio
Размер файла : 6,19 Мбайт
Продолжительность : 2 м. 42 с.
Режим общего битрейта : Постоянный
Общий поток : 320 Кбит/сек
Альбом : BEST JAZZ 100 - Disk6 Legends of Jazz
Альбом/Исполнитель : Various
Трек : Lop-pow
Трек/Положение : 07
Исполнитель : BABS GONZALES' THREE BIPS AND A BOP
Библиотека кодирования : LAME3.98
Аудио
Формат : MPEG Audio
Версия формата : Version 1
Профиль формата : Layer 3
Продолжительность : 2 м. 42 с.
Вид битрейта : Постоянный
Битрейт : 320 Кбит/сек
Каналы : 2 канала
Частота : 44,1 КГц
Метод сжатия : С потерями
Размер потока : 6,19 Мбайт (100%)
Библиотека кодирования : LAME3.98
Настройки программы : -m s -V 4 -q 0 -lowpass 20.5
Общее
Полное имя : D:\MEDIA\Audio\2008 - 100 Best Jazz\CD6 - Legends of Jazz\08.TADD DAMERON - Our delight.mp3
Формат : MPEG Audio
Размер файла : 6,85 Мбайт
Продолжительность : 2 м. 59 с.
Режим общего битрейта : Постоянный
Общий поток : 320 Кбит/сек
Альбом : BEST JAZZ 100 - Disk6 Legends of Jazz
Альбом/Исполнитель : Various
Трек : Our delight
Трек/Положение : 08
Исполнитель : TADD DAMERON
Библиотека кодирования : LAME3.98
Аудио
Формат : MPEG Audio
Версия формата : Version 1
Профиль формата : Layer 3
Продолжительность : 2 м. 59 с.
Вид битрейта : Постоянный
Битрейт : 320 Кбит/сек
Каналы : 2 канала
Частота : 44,1 КГц
Метод сжатия : С потерями
Размер потока : 6,85 Мбайт (100%)
Библиотека кодирования : LAME3.98
Настройки программы : -m s -V 4 -q 0 -lowpass 20.5
Общее
Полное имя : D:\MEDIA\Audio\2008 - 100 Best Jazz\CD6 - Legends of Jazz\09.HOWARD McGHEE & FATS NAVARRO - Boperation.mp3
Формат : MPEG Audio
Размер файла : 7,22 Мбайт
Продолжительность : 3 м. 9 с.
Режим общего битрейта : Постоянный
Общий поток : 320 Кбит/сек
Альбом : BEST JAZZ 100 - Disk6 Legends of Jazz
Альбом/Исполнитель : Various
Трек : Boperation
Трек/Положение : 09
Исполнитель : HOWARD McGHEE & FATS NAVARRO
Библиотека кодирования : LAME3.98
Аудио
Формат : MPEG Audio
Версия формата : Version 1
Профиль формата : Layer 3
Продолжительность : 3 м. 9 с.
Вид битрейта : Постоянный
Битрейт : 320 Кбит/сек
Каналы : 2 канала
Частота : 44,1 КГц
Метод сжатия : С потерями
Размер потока : 7,22 Мбайт (100%)
Библиотека кодирования : LAME3.98
Настройки программы : -m s -V 4 -q 0 -lowpass 20.5
Общее
Полное имя : D:\MEDIA\Audio\2008 - 100 Best Jazz\CD6 - Legends of Jazz\10.THELONIOUS MONK - 'Round midnight.mp3
Формат : MPEG Audio
Размер файла : 7,32 Мбайт
Продолжительность : 3 м. 11 с.
Режим общего битрейта : Постоянный
Общий поток : 320 Кбит/сек
Альбом : BEST JAZZ 100 - Disk6 Legends of Jazz
Альбом/Исполнитель : Various
Трек : 'Round midnight
Трек/Положение : 10
Исполнитель : THELONIOUS MONK
Библиотека кодирования : LAME3.98
Аудио
Формат : MPEG Audio
Версия формата : Version 1
Профиль формата : Layer 3
Продолжительность : 3 м. 12 с.
Вид битрейта : Постоянный
Битрейт : 320 Кбит/сек
Каналы : 2 канала
Частота : 44,1 КГц
Метод сжатия : С потерями
Размер потока : 7,32 Мбайт (100%)
Библиотека кодирования : LAME3.98
Настройки программы : -m s -V 4 -q 0 -lowpass 20.5
Общее
Полное имя : D:\MEDIA\Audio\2008 - 100 Best Jazz\CD6 - Legends of Jazz\11.BUD POWELL - Bouncing with bud.mp3
Формат : MPEG Audio
Размер файла : 7,10 Мбайт
Продолжительность : 3 м. 6 с.
Режим общего битрейта : Постоянный
Общий поток : 320 Кбит/сек
Альбом : BEST JAZZ 100 - Disk6 Legends of Jazz
Альбом/Исполнитель : Various
Трек : Bouncing with bud
Трек/Положение : 11
Исполнитель : BUD POWELL
Библиотека кодирования : LAME3.98
Аудио
Формат : MPEG Audio
Версия формата : Version 1
Профиль формата : Layer 3
Продолжительность : 3 м. 6 с.
Вид битрейта : Постоянный
Битрейт : 320 Кбит/сек
Каналы : 2 канала
Частота : 44,1 КГц
Метод сжатия : С потерями
Размер потока : 7,10 Мбайт (100%)
Библиотека кодирования : LAME3.98
Настройки программы : -m s -V 4 -q 0 -lowpass 20.5
Общее
Полное имя : D:\MEDIA\Audio\2008 - 100 Best Jazz\CD6 - Legends of Jazz\12.WYNTON KELLY - Born to be blue.mp3
Формат : MPEG Audio
Размер файла : 7,81 Мбайт
Продолжительность : 3 м. 24 с.
Режим общего битрейта : Постоянный
Общий поток : 320 Кбит/сек
Альбом : BEST JAZZ 100 - Disk6 Legends of Jazz
Альбом/Исполнитель : Various
Трек : Born to be blue
Трек/Положение : 12
Исполнитель : WYNTON KELLY
Библиотека кодирования : LAME3.98
Аудио
Формат : MPEG Audio
Версия формата : Version 1
Профиль формата : Layer 3
Продолжительность : 3 м. 24 с.
Вид битрейта : Постоянный
Битрейт : 320 Кбит/сек
Каналы : 2 канала
Частота : 44,1 КГц
Метод сжатия : С потерями
Размер потока : 7,81 Мбайт (100%)
Библиотека кодирования : LAME3.98
Настройки программы : -m s -V 4 -q 0 -lowpass 20.5
Общее
Полное имя : D:\MEDIA\Audio\2008 - 100 Best Jazz\CD6 - Legends of Jazz\13.MILT JACSON - Bags' groove.mp3
Формат : MPEG Audio
Размер файла : 7,14 Мбайт
Продолжительность : 3 м. 7 с.
Режим общего битрейта : Постоянный
Общий поток : 320 Кбит/сек
Альбом : BEST JAZZ 100 - Disk6 Legends of Jazz
Альбом/Исполнитель : Various
Трек : Bags' groove
Трек/Положение : 13
Исполнитель : MILT JACSON
Библиотека кодирования : LAME3.98
Аудио
Формат : MPEG Audio
Версия формата : Version 1
Профиль формата : Layer 3
Продолжительность : 3 м. 7 с.
Вид битрейта : Постоянный
Битрейт : 320 Кбит/сек
Каналы : 2 канала
Частота : 44,1 КГц
Метод сжатия : С потерями
Размер потока : 7,14 Мбайт (100%)
Библиотека кодирования : LAME3.98
Настройки программы : -m s -V 4 -q 0 -lowpass 20.5
Общее
Полное имя : D:\MEDIA\Audio\2008 - 100 Best Jazz\CD6 - Legends of Jazz\14.HORACE SILVER - Safari.mp3
Формат : MPEG Audio
Размер файла : 6,53 Мбайт
Продолжительность : 2 м. 51 с.
Режим общего битрейта : Постоянный
Общий поток : 320 Кбит/сек
Альбом : BEST JAZZ 100 - Disk6 Legends of Jazz
Альбом/Исполнитель : Various
Трек : Safari
Трек/Положение : 14
Исполнитель : HORACE SILVER
Библиотека кодирования : LAME3.98
Аудио
Формат : MPEG Audio
Версия формата : Version 1
Профиль формата : Layer 3
Продолжительность : 2 м. 51 с.
Вид битрейта : Постоянный
Битрейт : 320 Кбит/сек
Каналы : 2 канала
Частота : 44,1 КГц
Метод сжатия : С потерями
Размер потока : 6,53 Мбайт (100%)
Библиотека кодирования : LAME3.98
Настройки программы : -m s -V 4 -q 0 -lowpass 20.5
Общее
Полное имя : D:\MEDIA\Audio\2008 - 100 Best Jazz\CD6 - Legends of Jazz\15.LOU DANALDSON & CLIFFORD BROWN - Carvin' the rock.mp3
Формат : MPEG Audio
Размер файла : 9,10 Мбайт
Продолжительность : 3 м. 58 с.
Режим общего битрейта : Постоянный
Общий поток : 320 Кбит/сек
Альбом : BEST JAZZ 100 - Disk6 Legends of Jazz
Альбом/Исполнитель : Various
Трек : Carvin' the rock
Трек/Положение : 15
Исполнитель : LOU DANALDSON & CLIFFORD BROWN
Библиотека кодирования : LAME3.98
Аудио
Формат : MPEG Audio
Версия формата : Version 1
Профиль формата : Layer 3
Продолжительность : 3 м. 58 с.
Вид битрейта : Постоянный
Битрейт : 320 Кбит/сек
Каналы : 2 канала
Частота : 44,1 КГц
Метод сжатия : С потерями
Размер потока : 9,10 Мбайт (100%)
Библиотека кодирования : LAME3.98
Настройки программы : -m s -V 4 -q 0 -lowpass 20.5
Общее
Полное имя : D:\MEDIA\Audio\2008 - 100 Best Jazz\CD6 - Legends of Jazz\16.HERBIE NICHOLS - Lady sings the blues.mp3
Формат : MPEG Audio
Размер файла : 10,1 Мбайт
Продолжительность : 4 м. 25 с.
Режим общего битрейта : Постоянный
Общий поток : 320 Кбит/сек
Альбом : BEST JAZZ 100 - Disk6 Legends of Jazz
Альбом/Исполнитель : Various
Трек : Lady sings the blues
Трек/Положение : 16
Исполнитель : HERBIE NICHOLS
Библиотека кодирования : LAME3.98
Аудио
Формат : MPEG Audio
Версия формата : Version 1
Профиль формата : Layer 3
Продолжительность : 4 м. 25 с.
Вид битрейта : Постоянный
Битрейт : 320 Кбит/сек
Каналы : 2 канала
Частота : 44,1 КГц
Метод сжатия : С потерями
Размер потока : 10,1 Мбайт (100%)
Библиотека кодирования : LAME3.98
Настройки программы : -m s -V 4 -q 0 -lowpass 20.5

Спектрограммы

       
Время раздачи: С 08:00 до 24:00
Other forum [Profile] [PM]
Display posts from previous:    
Reply to topic

The time now is: Today 22:47

All times are GMT + 3 Hours



You cannot post new topics in this forum
You cannot reply to topics in this forum
You cannot edit your posts in this forum
You cannot delete your posts in this forum
You cannot vote in polls in this forum
You cannot attach files in this forum
You cannot download files in this forum