Today is a free download without charge Download

Discovery: Самогонщики (сезон 2, серия 1 из ?)/ Discovery: Moonshine (2013) WEB-DLRip [обновляемая]

Reply to topic
 
Author
Message

UndegraundMen ®

Longevity: 7 years 7 months

Posts: 25145

Торрент-статистика

Post 09-May-2013 00:04

[Quote]

Discovery: Самогонщики (сезон 2, серия 1 из ?) / Discovery: Moonshine (2013) WEB-DLRip [обновляемая]- Русское название: Discovery: Самогонщики
Оригинальное название: Discovery: Moonshine
Режиссер / Телекомпания: Discovery Channel
Год выпуска: 2013
Жанр: Документальный
Описание:
В скрытом от посторонних глаз уголке Америки Грейт-Смоки-Маунтинс наступило лето, а это значит лишь одно - начался сезон производства самогона. Этой войне сотни лет - войне за свою долю от стомиллионного джекпота , не облагаемого налогами.
В этом сезона много изменений: новые лица, новые методы и новая угроза.
В прошлом сезоне ушла легенда. Его корона достанется фавориту нового сезона.
В борьбе за деньги люди жертвуют дружбой и остаются ни с чем.
Продолжительность: 00:43:41
Перевод: Одноголосый закадровый, профессиональный
Видеокодек: Xvid
Битрейт видео: ~1499 Кбит/сек
Размер кадра: 720x400
Качество видео: WEB-DLRip
Аудиокодек: MP3
Битрейт аудио: 256 Кбит/сек
Скриншоты:
       
       

MediaInfo

Общее
Полное имя : H:\ДОКУМЕНТАЛКИ\Самогонщики 2 сезон\Самогонщики s2e01 - Проснись и пой.avi
Формат : AVI
Формат/Информация : Audio Video Interleave
Размер файла : 553 Мбайт
Продолжительность : 43 м.
Общий поток : 1768 Кбит/сек
Программа кодирования : Lavf52.94.0
Видео
Идентификатор : 0
Формат : MPEG-4 Visual
Профиль формата : [email protected]
Параметр BVOP формата : Нет
Параметр QPel формата : Нет
Параметр GMC формата : Без точки перехода
Параметр матрицы формата : Default (H.263)
Идентификатор кодека : XVID
Идентификатор кодека/Подсказка : XviD
Продолжительность : 43 м.
Битрейт : 1499 Кбит/сек
Ширина : 720 пикселей
Высота : 400 пикселей
Соотношение сторон : 16:9
Частота кадров : 25,000 кадров/сек
Цветовое пространство : YUV
Субдискретизация насыщенности : 4:2:0
Битовая глубина : 8 бит
Тип развёртки : Прогрессивная
Метод сжатия : С потерями
Бит/(Пиксели*Кадры) : 0.208
Размер потока : 469 Мбайт (85%)
Библиотека кодирования : XviD 1.2.1 (UTC 2008-12-04)
Аудио
Идентификатор : 1
Формат : MPEG Audio
Версия формата : Version 1
Профиль формата : Layer 3
Режим : Joint stereo
Расширение режима : MS Stereo
Идентификатор кодека : 55
Идентификатор кодека/Подсказка : MP3
Продолжительность : 43 м.
Вид битрейта : Постоянный
Битрейт : 256 Кбит/сек
Каналы : 2 канала
Частота : 48,0 КГц
Метод сжатия : С потерями
Размер потока : 80,0 Мбайт (14%)
Выравнивание : Соединение по промежуткам
Продолжительность промежутка : 24 мс. (0,60 видеокадр)
Библиотека кодирования : LAME3.98.4
Время раздачи: с 9:00 до 21:00 по МСК
Other forum [Profile] [PM]
Display posts from previous:    
Reply to topic

The time now is: Today 01:18

All times are GMT + 3 Hours



You cannot post new topics in this forum
You cannot reply to topics in this forum
You cannot edit your posts in this forum
You cannot delete your posts in this forum
You cannot vote in polls in this forum
You cannot attach files in this forum
You cannot download files in this forum