Today is a free download without charge Download

Отверженные / Les Miserables (Том Хупер) [2012.., США, Мюзикл, драма, мелодрама, BDRemux] [1080p]

Reply to topic
 
Author
Message

Meshanik ®

Gender:

Longevity: 8 years 10 months

Posts: 3866

Location: Los Angeles

Торрент-статистика

Post 08-May-2013 16:01

[Quote]

Отверженные / Les Miserables- Русское название: Отверженные
Оригинальное название: Les Miserables
Год выпуска: 2012
Производство: США, Великобритания / Universal Pictures, Relativity Media, Working Title Films, Cameron Mackintosh
Жанр: Мьюзикл, Драма, Мелодрама
Продолжительность: 02:37:54
Перевод: Дублированный [лицензия]
Язык субтитров: Русский (два вида), английский
Вид субтитров: Вшитые, отключаемые
Режиссер: Том Хупер
Продюсер: Тим Беван, Эрик Феллнер, Камерон Макинтош
Актеры: Хью Джекман, Рассел Кроу, Энн Хэтэуэй, Аманда Сайфред, Эдди Редмэйн, Хелена Бонем Картер, Саша Барон Коэн, Аарон Твейт, Саманта Баркс, Дэниэл Хаттлстоун-Описание фильма:
Действие развивается в начале XIX столетия. Беглый каторжник Жан Вальжан, приговоренный к тюремному заключению, вынужден долгие годы скрываться от жестокого правосудия. Инспектор парижской полиции Жавер считает его поимку делом всей своей жизни. После смерти Фантины — женщины, за судьбу которой Жан Вальжан считал себя в ответе, — единственным близким ему человеком остается ее дочь Козетта. Ради счастья девушки Жан готов на все.-
Рейтинг PG-13 - Дети до 13 лет допускаются на фильм только с родителями -Дата мировой премьеры: 5 декабря 2012
Дата российской премьеры: 7 февраля 2013, «UPI»
Дата выхода DVD релиза: 25 апреля 2013, «Двадцатый Век Фокс СНГ»
Дата выхода Blu-Ray релиза: 25 апреля 2013, «Двадцатый Век Фокс СНГ»-Релиз от: Релиз группа: -Качество видео: BDRemux
Видеокодек: MPEG-4 AVC/H.264
Размер кадра: 1920x1080p
Контейнер: MKV
Битрейт видео: 23168 Кбит/с
Аудио #1: Русский (AC3, 6 ch, 384 Кбит/с) [Дублированный]
Аудио #2: Английский (DTS-HD MA, 8 ch, 4797 Кбит/с) [Оригинальный]
Аудио #3: Английский (AC3, 2 ch, 192 Кбит/с) [комментарии #1]
Аудио #4: Английский (AC3, 2 ch, 192 Кбит/с) [комментарии #2]

MediaInfo

Общее
Уникальный идентификатор : 218308879352495091442723583363519170107 (0xA43CC2C2F0D1E7C984C95CF47879463B)
Полное имя : D:\Otverzhennye (2012) Vlu-Ray Remux [1080p].mkv
Формат : Matroska
Версия формата : Version 4 / Version 2
Размер файла : 31,7 Гбайт
Продолжительность : 2 ч. 37 м.
Режим общего битрейта : Переменный
Общий поток : 28,7 Мбит/сек
Дата кодирования : UTC 2013-04-13 12:28:08
Программа кодирования : mkvmerge v6.1.0 ('Old Devil') built on Mar 2 2013 14:32:37
Библиотека кодирования : libebml v1.3.0 + libmatroska v1.4.0
Видео
Идентификатор : 1
Формат : AVC
Формат/Информация : Advanced Video Codec
Профиль формата : [url=mailto:[email protected]][email protected][/url]
Параметр CABAC формата : Да
Параметр ReFrames формата : 4 кадра
Параметр GOP формата : M=3, N=12
Идентификатор кодека : V_MPEG4/ISO/AVC
Продолжительность : 2 ч. 37 м.
Вид битрейта : Переменный
Максимальный битрейт : 35,0 Мбит/сек
Ширина : 1920 пикселей
Высота : 1080 пикселей
Соотношение сторон : 16:9
Режим частоты кадров : Постоянный
Частота кадров : 23,976 кадра/сек
Цветовое пространство : YUV
Субдискретизация насыщенности : 4:2:0
Битовая глубина : 8 бит
Тип развёртки : Прогрессивная
Заголовок : Отверженные / Les Miserables (2012) BDRemux 1080p
Язык : English
Default : Нет
Forced : Нет
Аудио #1
Идентификатор : 2
Формат : AC-3
Формат/Информация : Audio Coding 3
Расширение режима : CM (complete main)
Параметр Endianness формата : Big
Идентификатор кодека : A_AC3
Продолжительность : 2 ч. 37 м.
Вид битрейта : Постоянный
Битрейт : 384 Кбит/сек
Каналы : 6 каналов
Расположение каналов : Front: L C R, Side: L R, LFE
Частота : 48,0 КГц
Битовая глубина : 16 бит
Метод сжатия : С потерями
Размер потока : 434 Мбайт (1%)
Язык : Russian
Default : Да
Forced : Нет
Аудио #2
Идентификатор : 3
Формат : DTS
Формат/Информация : Digital Theater Systems
Профиль формата : MA / Core
Режим : 16
Параметр Endianness формата : Big
Идентификатор кодека : A_DTS
Продолжительность : 2 ч. 37 м.
Вид битрейта : Переменный
Битрейт : Неизвестно / 1509 Кбит/сек
Каналы : 8 каналов / 6 каналов
Расположение каналов : Front: L C R, Side: L R, Back: L R, LFE / Front: L C R, Side: L R, LFE
Частота : 48,0 КГц
Битовая глубина : 24 бит
Метод сжатия : Без потерь / Lossy
Заголовок : Lossless
Язык : English
Default : Нет
Forced : Нет
Аудио #3
Идентификатор : 4
Формат : AC-3
Формат/Информация : Audio Coding 3
Профиль формата : Dolby Digital
Расширение режима : CM (complete main)
Параметр Endianness формата : Big
Идентификатор кодека : A_AC3
Продолжительность : 2 ч. 37 м.
Вид битрейта : Постоянный
Битрейт : 192 Кбит/сек
Каналы : 2 канала
Расположение каналов : Front: L R
Частота : 48,0 КГц
Битовая глубина : 16 бит
Метод сжатия : С потерями
Размер потока : 217 Мбайт (1%)
Заголовок : 2/0
Язык : English
Default : Нет
Forced : Нет
Аудио #4
Идентификатор : 5
Формат : AC-3
Формат/Информация : Audio Coding 3
Профиль формата : Dolby Digital
Расширение режима : CM (complete main)
Параметр Endianness формата : Big
Идентификатор кодека : A_AC3
Продолжительность : 2 ч. 37 м.
Вид битрейта : Постоянный
Битрейт : 192 Кбит/сек
Каналы : 2 канала
Расположение каналов : Front: L R
Частота : 48,0 КГц
Битовая глубина : 16 бит
Метод сжатия : С потерями
Размер потока : 217 Мбайт (1%)
Заголовок : 2/0
Язык : English
Default : Нет
Forced : Нет
Текст #1
Идентификатор : 6
Формат : UTF-8
Идентификатор кодека : S_TEXT/UTF8
Идентификатор кодека/Информация : UTF-8 Plain Text
Язык : Russian
Default : Да
Forced : Нет
Текст #2
Идентификатор : 7
Формат : UTF-8
Идентификатор кодека : S_TEXT/UTF8
Идентификатор кодека/Информация : UTF-8 Plain Text
Язык : Russian
Default : Нет
Forced : Нет
Текст #3
Идентификатор : 8
Формат : UTF-8
Идентификатор кодека : S_TEXT/UTF8
Идентификатор кодека/Информация : UTF-8 Plain Text
Язык : English
Default : Нет
Forced : Нет
Меню
00:00:00.000 : en:Chapter 00
00:07:22.817 : en:Chapter 01
00:14:31.996 : en:Chapter 02
00:22:22.966 : en:Chapter 03
00:31:52.619 : en:Chapter 04
00:40:13.661 : en:Chapter 05
00:45:14.294 : en:Chapter 06
00:52:43.493 : en:Chapter 07
01:00:40.845 : en:Chapter 08
01:06:41.122 : en:Chapter 09
01:15:51.088 : en:Chapter 10
01:20:21.650 : en:Chapter 11
01:27:04.344 : en:Chapter 12
01:35:34.729 : en:Chapter 13
01:42:10.290 : en:Chapter 14
01:52:20.859 : en:Chapter 15
02:03:01.082 : en:Chapter 16
02:10:09.343 : en:Chapter 17
02:21:18.178 : en:Chapter 18
02:29:41.347 : en:Chapter 19

BV

-Скриншоты:
           
-
Other forum [Profile] [PM]
Display posts from previous:    
Reply to topic

The time now is: Today 06:18

All times are GMT + 3 Hours



You cannot post new topics in this forum
You cannot reply to topics in this forum
You cannot edit your posts in this forum
You cannot delete your posts in this forum
You cannot vote in polls in this forum
You cannot attach files in this forum
You cannot download files in this forum