Today is a free download without charge Download

Carl Cox - Live at Space Opening, Ibiza (2010) HDTV

Reply to topic
 
Author
Message

p2000s ®

Gender:

Longevity: 8 years

Posts: 89

Location: деактивирован, причина: последнее посещение 2017-11-29. darkos_bot 14.06.2019г

Торрент-статистика

Post 08-May-2013 15:27

[Quote]

Carl Cox - Live at Space Opening, Ibiza (2010) HDTV- Оригинальное название: Carl Cox - Live at Space Opening, Ibiza
Год выпуска: 2010
Жанр: Techno/Dance/House
Описание фильма:
На Ибице каждый год играют новые Dj. Но… есть и постоянный, зажигающий публику, ветеран. Кто бы его не услышал – все начинают по нему переться. Он – пожалуй, самый известный Dj на Ибице, он же один из лучших в мире – Carl Cox!
Основное его направление – это техно. Карл родился в 1962 году в Манчестере. Дальше в его жизни было много чего, наверное, на целую книгу хватит. Поэтому, немного перескочу – к 1986 году он окончательно решает выбрать профессию Dj. Сначала Carl Cox пробует играть эйсид-хаус, но ему он не очень приходится по душе. И, примерно в 1992 году, он решает, что будет заниматься жёстким техно. Что, в общем, его и прославило!…
Сейчас Коксу уже 48 лет, но по нему совсем не скажешь. И вот уже несколько лет этот «бессмертный» Dj зажигает в клубе «Space».
На сегодняшний день Space является Меккой для клабберов всего мира - самый известный в мире клуб, где проходят after-party - начинает свою деятельность утром, после того, как закрываются ночные клубы. Space занимает культовое место на мировой танцевальной сцене. Самые крутые клабберы прилетают специально на открытие и закрытие и многие великие DJ мирового уровня считают Space своим любимым клубом.
Продолжительность: 01:44:00
Видеокодек: MPEG-4 AVC/H.264
Битрейт видео: ~10.1 Mbps
Размер кадра: 1920х1080
Качество видео: HDTV
Аудио #1: MPEG Audio 160 kb/s CBR
Аудио #2: AC-3 5.1 448 kb/s CBR

Mediainfo:

General
ID : 1
Complete name : G:\Carl.Cox-Live.at.Space.Opening.2010.x264.HDTV.(1080i).ts
Format : MPEG-TS
File size : 8.42 GiB
Duration : 1h 44mn
Overall bit rate : 11.5 Mbps
Maximum Overall bit rate : 35.5 Mbps
Video
ID : 4113 (0x1011)
Menu ID : 1 (0x1)
Format : AVC
Format/Info : Advanced Video Codec
Format profile : [url=mailto:[email protected]][email protected][/url]
Format settings, CABAC : Yes
Format settings, ReFrames : 2 frames
Duration : 1h 44mn
Bit rate : 10.1 Mbps
Width : 1 920 pixels
Height : 1 080 pixels
Display aspect ratio : 16/9
Frame rate : 25.000 fps
Resolution : 24 bits
Colorimetry : 4:2:0
Scan type : MBAFF
Bits/(Pixel*Frame) : 0.196
Stream size : 7.39 GiB (88%)
Audio #1
ID : 4352 (0x1100)
Menu ID : 1 (0x1)
Format : MPEG Audio
Format version : Version 1
Format profile : Layer 2
Duration : 1h 44mn
Bit rate mode : Constant
Bit rate : 160 Kbps
Channel(s) : 2 channels
Sampling rate : 48.0 KHz
Resolution : 16 bits
Stream size : 120 MiB (1%)
Language : English
Audio #2
ID : 4353 (0x1101)
Menu ID : 1 (0x1)
Format : AC-3
Format/Info : Audio Coding 3
Duration : 1h 44mn
Bit rate mode : Constant
Bit rate : 448 Kbps
Channel(s) : 6 channels
Channel positions : Front: L C R, Surround: L R, LFE
Sampling rate : 48.0 KHz
Stream size : 335 MiB (4%)
Language : English
Скриншоты:
         
Время раздачи: 24/7 - круглосуточно
Other forum [Profile] [PM]
Display posts from previous:    
Reply to topic

The time now is: Today 02:54

All times are GMT + 3 Hours



You cannot post new topics in this forum
You cannot reply to topics in this forum
You cannot edit your posts in this forum
You cannot delete your posts in this forum
You cannot vote in polls in this forum
You cannot attach files in this forum
You cannot download files in this forum