Today is a free download without charge Download

Привет, мне пора / Hello I Must Be Going (Тодд Луисо / Todd Louiso) [2012, США, драма, мелодрама, комедия, BDRip 720p] MVO + Sub Eng + Original Eng

Reply to topic
 
Author
Message

Omen ®

Longevity: 8 years 5 months

Posts: 181087

Торрент-статистика

Post 08-May-2013 13:56

[Quote]

Привет, мне пора / Hello I Must Be Going
Страна: США
Жанр: драма, мелодрама, комедия
Год выпуска: 2012
Продолжительность: 01:38:58
Перевод: Профессиональный (многоголосый закадровый)
Cубтитры: английские (SDH)
Оригинальная аудиодорожка: английский
Режиссер: Тодд Луисо / Todd Louiso
В ролях: Мелани Лински, Блайт Даннер, Джон Рубинстайн, Сара Чейз, Дэниэл Эрик Голд, Тори Фейнштейн, Дэйв Кениг, Грета Ли, Мира Симхан, Джули Уайт, Дэмиэн Янг, Кристофер Эбботт
Описание: Эми Мински разведена и деморализована, и ее перспективы на будущее весьма малообещающи. В возрасте 35 лет ей приходится вернуться в родительский дом. В тот момент, когда ожидание любви становится нестерпимо, и депрессия подходит близко, на горизонте появляется самоуверенный прекрасный 19-летний юноша. Он разжигает в Эми тлевший фитилек страсти и неожиданно освещает возможный путь к самопознанию.
Сэмпл: http://multi-up.com/863330
Тип релиза: BDRip 720p
Контейнер: MKV
Видео: MPEG4 Video (H264), 1280x692, 23.976 fps, 3887 Kbps, 0.18 bit/pixel
Аудио 1: Русский / Dolby Digital Audio / 2 ch / 48 kHz / 192 kbps
Аудио 2: Eng / Dolby Digital Audio / 6 ch / 48 kHz / 384 kbps

MediaInfo

General
Unique ID : 178280459364738305114113233497767914570 (0x861F9148EC4763EEBD4388B7B449AC4A)
Complete name : C:\Привет, мне пора.2012.720p.mkv
Format : Matroska
Format version : Version 4 / Version 2
File size : 2.99 GiB
Duration : 1h 33mn
Overall bit rate : 4 554 Kbps
Encoded date : UTC 2013-05-08 06:18:33
Writing application : mkvmerge v6.2.0 ('Promised Land') built on Apr 28 2013 12:22:01
Writing library : libebml v1.3.0 + libmatroska v1.4.0
Video
ID : 1
Format : AVC
Format/Info : Advanced Video Codec
Format profile : [email protected]
Format settings, CABAC : No
Format settings, ReFrames : 2 frames
Codec ID : V_MPEG4/ISO/AVC
Duration : 1h 33mn
Bit rate : 3 887 Kbps
Width : 1 280 pixels
Height : 692 pixels
Display aspect ratio : 1.85:1
Frame rate mode : Constant
Frame rate : 23.976 fps
Color space : YUV
Chroma subsampling : 4:2:0
Bit depth : 8 bits
Scan type : Progressive
Bits/(Pixel*Frame) : 0.183
Stream size : 2.55 GiB (85%)
Language : English
Default : Yes
Forced : No
Color primaries : BT.709
Transfer characteristics : BT.709
Matrix coefficients : BT.709
Audio #1
ID : 2
Format : AC-3
Format/Info : Audio Coding 3
Mode extension : CM (complete main)
Format settings, Endianness : Big
Codec ID : A_AC3
Duration : 1h 33mn
Bit rate mode : Constant
Bit rate : 192 Kbps
Channel(s) : 2 channels
Channel positions : Front: L R
Sampling rate : 48.0 KHz
Bit depth : 16 bits
Compression mode : Lossy
Stream size : 129 MiB (4%)
Language : Russian
Default : Yes
Forced : No
Audio #2
ID : 3
Format : AC-3
Format/Info : Audio Coding 3
Mode extension : CM (complete main)
Format settings, Endianness : Big
Codec ID : A_AC3
Duration : 1h 33mn
Bit rate mode : Constant
Bit rate : 384 Kbps
Channel(s) : 6 channels
Channel positions : Front: L C R, Side: L R, LFE
Sampling rate : 48.0 KHz
Bit depth : 16 bits
Compression mode : Lossy
Stream size : 258 MiB (8%)
Language : English
Default : No
Forced : No
Text
ID : 4
Format : UTF-8
Codec ID : S_TEXT/UTF8
Codec ID/Info : UTF-8 Plain Text
Language : English
Default : No
Forced : No
Menu
00:00:00.000 : en:Opening Sequence
00:06:36.000 : en:Divorced
00:14:20.000 : en:A Long Time Ago
00:19:39.000 : en:Jeremy
00:25:13.000 : en:Good Luck
00:31:12.000 : en:My Depression
00:36:24.000 : en:A Plan
00:42:32.000 : en:Clich茅
00:47:36.000 : en:Business
00:54:22.000 : en:Tuna Steak
00:58:26.000 : en:My Own Child
01:04:50.000 : en:Are You Drunk?
01:10:56.000 : en:New York
01:17:58.000 : en:The Trip
01:22:18.000 : en:Two Months
01:29:57.000 : en:End Credits

Скриншоты

Other forum [Profile] [PM]
Display posts from previous:    
Reply to topic

The time now is: Today 22:56

All times are GMT + 3 Hours



You cannot post new topics in this forum
You cannot reply to topics in this forum
You cannot edit your posts in this forum
You cannot delete your posts in this forum
You cannot vote in polls in this forum
You cannot attach files in this forum
You cannot download files in this forum