Today is a free download without charge Download

Вампиры / Vampyres (Хосе Рамон Ларрас / José Ramón Larraz) [1974, Великобритания, ужасы, BDRip 1080p] VO + Original (Eng) + Subs (Rus, Eng)

Reply to topic
 
Author
Message

Omen ®

Longevity: 8 years 5 months

Posts: 181087

Торрент-статистика

Post 08-May-2013 13:56

[Quote]

ВампирыVampyres«They shared the pleasures of the flesh, and the horrors of the grave!»- Страна: Великобритания
Жанр: ужасы
Год выпуска: 1974
Продолжительность: 01:27:36-Перевод: Одноголосый закадровый fiendover (overfiend) (Виктор Рутилов)
Оригинальная аудиодорожка: английский
Субтитры: русские, английские
Режиссер: Хосе Рамон Ларрас / José Ramón Larraz
В ролях: Марианн Моррис, Анулька Дзюбинская, Мюррэй Браун, Брайан Дикон, Сэлли Фолкнер, Майкл Бирн, Карл Лэнчбери, Маргарет Хилд, Джералд Кейс, Бесси Лав, Эллиот Салливан-Описание: Две английские вампирши живут в замке близ Лондона и каждую ночь отправляются на поиск очередной наивной жертвы мужского пола. Однако встретившийся им однажды парень по имени Тэд оказался вампиршам не по зубам.-


MPAA: R - Лицам до 17 лет обязательно присутствие взрослого-

Доп. Информация

Сценарий: Д. Добеней / D. Daubeney, Хосе Рамон Ларрас / José Ramón Larraz, Томас Оуэн / Thomas Owen
Продюсер: Брайан Смедли-Астон / Brian Smedley-Aston
Оператор: Гарри Уоксмен / Harry Waxman
Композитор: Джеймс Кенельм Кларк / James Kenelm Clarke
Мировая премьера: 11 октября 1979
-Качество: BDRip 1080p
Контейнер: MKV
Видео: AVC, 1920x1042 (16:9), 16391 kbps, 23,976 fps, 0,342 bpp
Аудио №1: английский / DTS / 5.1 / 48 kHz / 1510 kbps / 16 bit
Аудио №2: русский / AC3 / 2.0 / 48 kHz / 192 kbps / 16 bit ||
Формат субтитров: softsub (SRT)
Навигация по главам: есть-

Media Info

General
Unique ID : 240642632672986753323381350206110103625 (0xB50A15D0B90E6A02B8522F2F1402F849)
Complete name : D:\Vampiry.1974.BDRip.1080p.mkv
Format : Matroska
Format version : Version 2
File size : 11.3 GiB
Duration : 1h 27mn
Overall bit rate : 18.5 Mbps
Encoded date : UTC 2013-05-08 07:34:26
Writing application : mkvmerge v5.8.0 ('No Sleep / Pillow') built on Sep 2 2012 15:37:04
Writing library : libebml v1.2.3 + libmatroska v1.3.0
Video
ID : 1
Format : AVC
Format/Info : Advanced Video Codec
Format profile : [email protected]
Format settings, CABAC : Yes
Format settings, ReFrames : 4 frames
Codec ID : V_MPEG4/ISO/AVC
Duration : 1h 27mn
Bit rate : 16.4 Mbps
Width : 1 920 pixels
Height : 1 042 pixels
Display aspect ratio : 16:9
Frame rate : 23.976 fps
Color space : YUV
Chroma subsampling : 4:2:0
Bit depth : 8 bits
Scan type : Progressive
Bits/(Pixel*Frame) : 0.342
Stream size : 10.0 GiB (89%)
Writing library : x264 core 130 r2273 b3065e6
Encoding settings : cabac=1 / ref=4 / deblock=1:-1:-1 / analyse=0x3:0x113 / me=umh / subme=10 / psy=1 / psy_rd=1.00:0.15 / mixed_ref=1 / me_range=48 / chroma_me=1 / trellis=2 / 8x8dct=1 / cqm=0 / deadzone=21,11 / fast_pskip=1 / chroma_qp_offset=-3 / threads=12 / lookahead_threads=3 / sliced_threads=0 / nr=0 / decimate=1 / interlaced=0 / bluray_compat=0 / constrained_intra=0 / bframes=12 / b_pyramid=2 / b_adapt=2 / b_bias=0 / direct=3 / weightb=1 / open_gop=0 / weightp=2 / keyint=250 / keyint_min=23 / scenecut=40 / intra_refresh=0 / rc_lookahead=40 / rc=crf / mbtree=0 / crf=19.2 / qcomp=0.60 / qpmin=0 / qpmax=69 / qpstep=4 / vbv_maxrate=50000 / vbv_bufsize=62500 / crf_max=0.0 / nal_hrd=none / ip_ratio=1.40 / pb_ratio=1.30 / aq=1:1.00
Language : English
Default : Yes
Forced : No
Audio #1
ID : 2
Format : DTS
Format/Info : Digital Theater Systems
Codec ID : A_DTS
Duration : 1h 27mn
Bit rate mode : Constant
Bit rate : 1 510 Kbps
Channel(s) : 6 channels
Channel positions : Front: L C R, Side: L R, LFE
Sampling rate : 48.0 KHz
Bit depth : 16 bits
Compression mode : Lossy
Stream size : 946 MiB (8%)
Title : English
Language : English
Default : No
Forced : No
Audio #2
ID : 3
Format : AC-3
Format/Info : Audio Coding 3
Mode extension : CM (complete main)
Codec ID : A_AC3
Duration : 1h 27mn
Bit rate mode : Constant
Bit rate : 192 Kbps
Channel(s) : 2 channels
Channel positions : Front: L R
Sampling rate : 48.0 KHz
Bit depth : 16 bits
Compression mode : Lossy
Stream size : 120 MiB (1%)
Title : Закадровый (Одноголосый).
Language : Russian
Default : Yes
Forced : Yes
Text #1
ID : 4
Format : UTF-8
Codec ID : S_TEXT/UTF8
Codec ID/Info : UTF-8 Plain Text
Language : Russian
Default : No
Forced : No
Text #2
ID : 5
Format : UTF-8
Codec ID : S_TEXT/UTF8
Codec ID/Info : UTF-8 Plain Text
Language : English
Default : No
Forced : No
Menu
00:00:00.000 : :Chapter 01
00:05:00.000 : :Chapter 02
00:10:00.000 : :Chapter 03
00:15:00.000 : :Chapter 04
00:20:00.000 : :Chapter 05
00:25:00.000 : :Chapter 06
00:30:00.000 : :Chapter 07
00:35:00.000 : :Chapter 08
00:40:00.000 : :Chapter 09
00:45:00.000 : :Chapter 10
00:50:00.000 : :Chapter 11
00:55:00.000 : :Chapter 12
01:00:00.000 : :Chapter 13
01:05:00.000 : :Chapter 14
01:10:00.000 : :Chapter 15
01:15:00.000 : :Chapter 16
01:20:00.000 : :Chapter 17
01:25:00.000 : :Chapter 18

х264

x264 [info]: frame I:603 Avg QP:17.40 size:195109
x264 [info]: frame P:23828 Avg QP:18.35 size:126991
x264 [info]: frame B:101593 Avg QP:20.79 size: 77425
x264 [info]: consecutive B-frames: 0.8% 1.1% 5.5% 9.0% 13.2% 58.4% 5.9% 3.0% 1.0% 1.1% 0.5% 0.3% 0.0%
x264 [info]: mb I I16..4: 2.2% 90.8% 7.0%
x264 [info]: mb P I16..4: 1.0% 37.8% 1.5% P16..4: 30.7% 22.1% 6.8% 0.0% 0.0% skip: 0.1%
x264 [info]: mb B I16..4: 0.2% 7.6% 0.1% B16..8: 43.4% 16.0% 3.6% direct:19.5% skip: 9.7% L0:47.0% L1:43.9% BI: 9.1%
x264 [info]: 8x8 transform intra:95.0% inter:73.3%
x264 [info]: direct mvs spatial:100.0% temporal:0.0%
x264 [info]: coded y,uvDC,uvAC intra: 94.8% 97.4% 88.8% inter: 59.7% 73.6% 33.3%
x264 [info]: i16 v,h,dc,p: 20% 14% 26% 40%
x264 [info]: i8 v,h,dc,ddl,ddr,vr,hd,vl,hu: 11% 6% 8% 10% 14% 14% 11% 13% 13%
x264 [info]: i4 v,h,dc,ddl,ddr,vr,hd,vl,hu: 18% 6% 4% 9% 13% 14% 12% 12% 12%
x264 [info]: i8c dc,h,v,p: 58% 14% 14% 15%
x264 [info]: Weighted P-Frames: Y:7.9% UV:2.2%
x264 [info]: ref P L0: 43.0% 7.5% 30.2% 17.1% 2.2% 0.0%
x264 [info]: ref B L0: 79.9% 15.8% 4.3%
x264 [info]: ref B L1: 88.7% 11.3%
x264 [info]: kb/s:16756.29

Скриншоты

Other forum [Profile] [PM]
Display posts from previous:    
Reply to topic

The time now is: Today 11:31

All times are GMT + 3 Hours



You cannot post new topics in this forum
You cannot reply to topics in this forum
You cannot edit your posts in this forum
You cannot delete your posts in this forum
You cannot vote in polls in this forum
You cannot attach files in this forum
You cannot download files in this forum