Today is a free download without charge Download

Рыцарь дня / Knight and Day (Джеймс Мэнголд) [2010, боевик, мелодрама, комедия, приключения, BDRip 1080р]

Reply to topic
 
Author
Message

Delia ®

Gender:

Longevity: 10 years

Posts: 1821

Торрент-статистика

Post 08-May-2013 10:57

[Quote]

-Рыцарь дняKnight and Day--
Год выпуска: 2010
Страна: США
Жанр: боевик, мелодрама, комедия, приключения
Продолжительность: 01:57:07
Перевод: Профессиональный (дублированный)
Субтитры: Russian , English (srt)
Режиссер: Джеймс Мэнголд
Сценарий: Патрик О’Нилл
Продюсер: Тодд Гарнер, Кэти Конрад, Стив Пинк, ...
Оператор: Фидон Папамайкл
Композитор: Джон Пауэлл
Художник: Эндрю Мензес, Грег Берри, Грегори С. Хупер, ...
Монтаж: Куинси З. Гандерсон, Майкл МакКаскер-
В ролях: Том Круз / Tom Cruise (Roy Miller, $ 11 000 000 (+ % от сборов)), Кэмерон Диаз / Cameron Diaz (June Havens, $ 10 000 000 ), Питер Сарсгаард / Peter Sarsgaard (John Fitzgerald), Хорди Молья / Jordi Molla (Antonio Quintana), Виола Дэвис / Viola Davis (Isabel George - C.I.A. Director), Пол Дано / Paul Dano (Simon Feck), Фальк Хеншел / Falk Hentschel (Bernhard), Марк Блукас / Marc Blucas (Rodney), Ленни Лофтин / Lennie Loftin (Braces), Мэгги Грэйс / Maggie Grace (April Havens)
Описание: Случайная встреча в аэропорту одинокой женщины Джун Хэвенс и обаятельного агента Миллера приводит к тому, что им приходится вместе колесить по всему свету, спасаясь от наемных убийц и пытаясь уберечь от коварных злодеев мощную батарею, которая является уникальным источником энергии.Попадая в бесчисленные передряги и постоянно находясь на волоске от смерти, Джун все время мучается в догадках, кто же на самом деле ее неугомонный спутник — спаситель человечества, предатель или просто-напросто сумасшедший…
Бюджет: $117 000 000
Сборы в США: $76 423 035
Сборы в мире: + $185 507 411 = $261 930 446
Сборы в России: $7 818 281
Зрители: США 9.69 млн , Корея Южная 2.26 млн , Китай 2.03 млн
Премьера (мир): 16 июня 2010, ...
Премьера (РФ): 24 июня 2010, «Двадцатый Век Фокс СНГ»
Релиз на DVD: 23 сентября 2010, «Двадцатый Век Фокс СНГ», ...
Релиз на Blu-Ray: 9 декабря 2010, «Двадцатый Век Фокс СНГ», ...
-
Рейтинг MPAA: Детям до 13 лет просмотр не желателен
Рейтинг ВКИП: для детей старше 12 лет-
Качество: BDRip
Формат: MKV
Видео кодек: H.264 (AVC)
Аудио кодеk: AC3
Видео: 1920x800 (2.40:1), 23.976 fps, AVC, 8 822 Kbps
Аудио #1: AC3, 448 Kbps, 48.0 KHz, 6 ch RUS Dub
Аудио #2: AC3, 448 Kbps, 48.0 KHz, 6 ch ENG


--

Отличие расширенной версии от театральной

Расширенная версия длинее театральной на 8 минут. Фильм дублирован полностью.
movie-censorship

МедиаИнфо

Код:
General
Unique ID                                : 247406410690906235262337834216284203033 (0xBA20BDD18591C12B9A8A838A4DCFA819)
Complete name                            : Knight and Day(2010)1080p.F-HD.mkv
Format                                   : Matroska
Format version                           : Version 4 / Version 2
File size                                : 7.95 GiB
Duration                                 : 1h 57mn
Overall bit rate                         : 9 718 Kbps
Movie name                               : Knight.and.Day.2010.1080p.Bluray.Extended.AVC.Remux
Encoded date                             : UTC 2013-05-08 04:38:32
Writing application                      : mkvmerge v6.2.0 ('Promised Land') built on Apr 28 2013 12:22:01
Writing library                          : libebml v1.3.0 + libmatroska v1.4.0
Video
ID                                       : 1
Format                                   : AVC
Format/Info                              : Advanced Video Codec
Format profile                           : [email protected]
Format settings, CABAC                   : Yes
Format settings, ReFrames                : 5 frames
Codec ID                                 : V_MPEG4/ISO/AVC
Duration                                 : 1h 57mn
Bit rate                                 : 8 822 Kbps
Width                                    : 1 920 pixels
Height                                   : 800 pixels
Display aspect ratio                     : 2.40:1
Frame rate mode                          : Constant
Frame rate                               : 23.976 fps
Color space                              : YUV
Chroma subsampling                       : 4:2:0
Bit depth                                : 8 bits
Scan type                                : Progressive
Bits/(Pixel*Frame)                       : 0.240
Stream size                              : 7.06 GiB (89%)
Writing library                          : x264 core 132 r2309 3b1f1f7
Encoding settings                        : cabac=1 / ref=5 / deblock=1:-2:-2 / analyse=0x3:0x113 / me=umh / subme=11 / psy=1 / psy_rd=1.00:0.05 / mixed_ref=1 / me_range=48 / chroma_me=1 / trellis=2 / 8x8dct=1 / cqm=0 / deadzone=21,11 / fast_pskip=0 / chroma_qp_offset=-3 / threads=6 / lookahead_threads=1 / sliced_threads=0 / nr=0 / decimate=1 / interlaced=0 / bluray_compat=0 / constrained_intra=0 / bframes=8 / b_pyramid=2 / b_adapt=2 / b_bias=0 / direct=3 / weightb=1 / open_gop=0 / weightp=2 / keyint=240 / keyint_min=23 / scenecut=40 / intra_refresh=0 / rc_lookahead=40 / rc=2pass / mbtree=0 / bitrate=8822 / ratetol=1.0 / qcomp=0.75 / qpmin=0 / qpmax=69 / qpstep=4 / cplxblur=20.0 / qblur=0.5 / vbv_maxrate=50000 / vbv_bufsize=62500 / nal_hrd=none / ip_ratio=1.40 / pb_ratio=1.30 / aq=1:0.80
Language                                 : English
Default                                  : Yes
Forced                                   : No
Color primaries                          : BT.709
Transfer characteristics                 : BT.709
Matrix coefficients                      : BT.709
Audio #1
ID                                       : 2
Format                                   : AC-3
Format/Info                              : Audio Coding 3
Mode extension                           : CM (complete main)
Format settings, Endianness              : Big
Codec ID                                 : A_AC3
Duration                                 : 1h 57mn
Bit rate mode                            : Constant
Bit rate                                 : 448 Kbps
Channel(s)                               : 6 channels
Channel positions                        : Front: L C R, Side: L R, LFE
Sampling rate                            : 48.0 KHz
Bit depth                                : 16 bits
Compression mode                         : Lossy
Stream size                              : 375 MiB (5%)
Language                                 : Russian
Default                                  : Yes
Forced                                   : No
Audio #2
ID                                       : 3
Format                                   : AC-3
Format/Info                              : Audio Coding 3
Mode extension                           : CM (complete main)
Format settings, Endianness              : Big
Codec ID                                 : A_AC3
Duration                                 : 1h 57mn
Bit rate mode                            : Constant
Bit rate                                 : 448 Kbps
Channel(s)                               : 6 channels
Channel positions                        : Front: L C R, Side: L R, LFE
Sampling rate                            : 48.0 KHz
Bit depth                                : 16 bits
Compression mode                         : Lossy
Stream size                              : 375 MiB (5%)
Language                                 : English
Default                                  : No
Forced                                   : No
Text #1
ID                                       : 4
Format                                   : UTF-8
Codec ID                                 : S_TEXT/UTF8
Codec ID/Info                            : UTF-8 Plain Text
Language                                 : Russian
Default                                  : No
Forced                                   : No
Text #2
ID                                       : 5
Format                                   : UTF-8
Codec ID                                 : S_TEXT/UTF8
Codec ID/Info                            : UTF-8 Plain Text
Language                                 : English
Default                                  : No
Forced                                   : No
Menu
00:00:00.000                             : en:00:00:00.000
00:04:52.083                             : en:00:04:52.083
00:07:05.425                             : en:00:07:05.425
00:11:11.629                             : en:00:11:11.629
00:13:45.033                             : en:00:13:45.033
00:18:34.864                             : en:00:18:34.864
00:20:58.132                             : en:00:20:58.132
00:24:22.628                             : en:00:24:22.628
00:32:58.977                             : en:00:32:58.977
00:38:00.987                             : en:00:38:00.987
00:41:05.963                             : en:00:41:05.963
00:45:46.494                             : en:00:45:46.494
00:52:18.969                             : en:00:52:18.969
00:56:14.329                             : en:00:56:14.329
00:59:15.552                             : en:00:59:15.552
01:02:27.786                             : en:01:02:27.786
01:06:50.423                             : en:01:06:50.423
01:13:29.280                             : en:01:13:29.280
01:17:45.703                             : en:01:17:45.703
01:23:31.381                             : en:01:23:31.381
01:25:51.396                             : en:01:25:51.396
01:30:08.278                             : en:01:30:08.278
01:34:34.419                             : en:01:34:34.419
01:37:50.031                             : en:01:37:50.031
01:42:34.982                             : en:01:42:34.982
01:45:25.736                             : en:01:45:25.736
01:48:14.530                             : en:01:48:14.530
01:51:51.204                             : en:01:51:51.204

Знаете ли Вы, что...

★ Во время съемок в Испании произошел инцидент. Прямо со съемочной площадки сбежали семь быков, задействованных в репетициях.
★ Фильм снимали в Бостоне, Лос-Анджелесе, Зальцбурге (Австрия), Севилья (Испания), Порт Антонио (Ямайка).
★ Круз отказался в пользу «Рыцаря дня» от «Солта» и «Туриста», поскольку счел их слишком уж похожими на «Миссия: невыполнима». В «Рыцаре» же его привлекли «элементы комедии».
★ Изначально главные роли должны были играть Ева Мендес и Крис Такер.
★ На роль, которая досталась Тому Крузу, пробовались: Крис Такер, Адам Сэндлер, Джерард Батлер.

Скриншоты

     
     

_________________
Человек – это канат, натянутый между животным и сверхчеловеком, – канат над пропастью.
В человеке ценно то, что он мост, а не цель. Фридрих Ницше
Other forum [Profile] [PM]
Display posts from previous:    
Reply to topic

The time now is: Today 12:52

All times are GMT + 3 Hours



You cannot post new topics in this forum
You cannot reply to topics in this forum
You cannot edit your posts in this forum
You cannot delete your posts in this forum
You cannot vote in polls in this forum
You cannot attach files in this forum
You cannot download files in this forum