Today is a free download without charge Download

БИ-2 - Сборник каверов (2013) [MP3|160-320 кб/с]<Rock>

Reply to topic
 
Author
Message

UndegraundMen ®

Longevity: 8 years 4 months

Posts: 25145

Торрент-статистика

Post 08-May-2013 00:01

[Quote]

БИ-2 - Сборник каверов (2013)- Год: 2013
Жанр: Rock
Продолжительность: 00:43:13
Кодек: MP3
Битрейт: 160-320 кб/с
Тип битрейта: VBR-CBR
Трек лист:
1. Время Луны (оригинал БГ)
2. Звёздный каталог (оригинал Браво)
3. Кукушка (оригинал В.Цой)
4. Бумажный змей (оригинал А.Пугачёва)
5. Вечная любовь (оригинал Агата Кристи)
6. Ночь, как вокзал (оригинал Квартал)
7. Тёмная ночь (оригинал М.Бернес)
8. Снег кружится (оригинал ВИА Пламя)
9. Привет тебе (оригинал Центр)
10. Опиум (оригинал Агата Кристи)
11. Би-2 feat. Ёлка Коламбия Пикчерз (оригинал БандЭрос)

MI

Код:
Общее
Полное имя                               : C:\БИ-2 - Сборник каверов (2013)\1. Время Луны (оригинал БГ).mp3
Формат                                   : MPEG Audio
Размер файла                             : 6,75 Мбайт
Продолжительность                        : 2 м. 56 с.
Режим общего битрейта                    : Постоянный
Общий поток                              : 320 Кбит/сек
Альбом                                   : Ñáîðíèê êàâåðîâ
Трек                                     : Âðåìÿ Ëóíû
Трек/Положение                           : 1
Исполнитель                              : ÁÈ-2
Жанр                                     : Other
Дата записи                              : 2013
Аудио
Формат                                   : MPEG Audio
Версия формата                           : Version 1
Профиль формата                          : Layer 3
Режим                                    : Joint stereo
Продолжительность                        : 2 м. 57 с.
Вид битрейта                             : Постоянный
Битрейт                                  : 320 Кбит/сек
Каналы                                   : 2 канала
Частота                                  : 44,1 КГц
Метод сжатия                             : С потерями
Размер потока                            : 6,75 Мбайт (100%)
Общее
Полное имя                               : C:\БИ-2 - Сборник каверов (2013)\10. Опиум (оригинал Агата Кристи).mp3
Формат                                   : MPEG Audio
Размер файла                             : 7,41 Мбайт
Продолжительность                        : 3 м. 13 с.
Режим общего битрейта                    : Постоянный
Общий поток                              : 320 Кбит/сек
Альбом                                   : Раритетный
Трек                                     : Опиум (Кавер Агаты Кристи)
Трек/Положение                           : 10
Исполнитель                              : БИ-2
Жанр                                     : Rock
Дата записи                              : 2006
Аудио
Формат                                   : MPEG Audio
Версия формата                           : Version 1
Профиль формата                          : Layer 3
Режим                                    : Joint stereo
Продолжительность                        : 3 м. 13 с.
Вид битрейта                             : Постоянный
Битрейт                                  : 320 Кбит/сек
Каналы                                   : 2 канала
Частота                                  : 44,1 КГц
Метод сжатия                             : С потерями
Размер потока                            : 7,38 Мбайт (100%)
Общее
Полное имя                               : C:\БИ-2 - Сборник каверов (2013)\11. Коламбия Пикчерз (оригинал БандЭрос).mp3
Формат                                   : MPEG Audio
Размер файла                             : 9,17 Мбайт
Продолжительность                        : 4 м. 0 с.
Режим общего битрейта                    : Постоянный
Общий поток                              : 320 Кбит/сек
Альбом                                   : Ñáîðíèê êàâåðîâ
Трек                                     : Êîëàìáèÿ Ïèê÷åðç
Трек/Положение                           : 11
Исполнитель                              : Áè-2 feat. ¨ëêà
Кодирование произвёл                     :
Жанр                                     : Other
Дата записи                              : 2013
Библиотека кодирования                   : LAME3.99.5
Правообладатель                          : Òîëüêî äëÿ îçíàêîìèòåëüíîãî ïðîñëóøèâàíèÿ
Обложка                                  : Yes
Тип обложки                              : Cover (front)
MIME-тип обложки                         : image/png
Примечание                               : Magic Record
Аудио
Формат                                   : MPEG Audio
Версия формата                           : Version 1
Профиль формата                          : Layer 3
Режим                                    : Joint stereo
Продолжительность                        : 4 м. 0 с.
Вид битрейта                             : Постоянный
Битрейт                                  : 320 Кбит/сек
Каналы                                   : 2 канала
Частота                                  : 44,1 КГц
Метод сжатия                             : С потерями
Размер потока                            : 9,16 Мбайт (100%)
Библиотека кодирования                   : LAME3.99.5
Общее
Полное имя                               : C:\БИ-2 - Сборник каверов (2013)\2. Звёздный каталог (оригинал Браво).mp3
Формат                                   : MPEG Audio
Размер файла                             : 8,38 Мбайт
Продолжительность                        : 4 м. 34 с.
Режим общего битрейта                    : Постоянный
Общий поток                              : 256 Кбит/сек
Альбом                                   : Ñáîðíèê êàâåðîâ
Трек                                     : Çâ¸çäíûé êàòàëîã
Трек/Положение                           : 2
Исполнитель                              : ÁÈ-2
Жанр                                     : Other
Дата записи                              : 2013
Библиотека кодирования                   : LAME3.93
Аудио
Формат                                   : MPEG Audio
Версия формата                           : Version 1
Профиль формата                          : Layer 3
Продолжительность                        : 4 м. 34 с.
Вид битрейта                             : Постоянный
Битрейт                                  : 256 Кбит/сек
Каналы                                   : 2 канала
Частота                                  : 44,1 КГц
Метод сжатия                             : С потерями
Размер потока                            : 8,37 Мбайт (100%)
Библиотека кодирования                   : LAME3.93
Общее
Полное имя                               : C:\БИ-2 - Сборник каверов (2013)\3. Кукушка (оригинал В.Цой).mp3
Формат                                   : MPEG Audio
Размер файла                             : 10,3 Мбайт
Продолжительность                        : 5 м. 38 с.
Режим общего битрейта                    : Постоянный
Общий поток                              : 256 Кбит/сек
Альбом                                   : Ñáîðíèê êàâåðîâ
Трек                                     : Êóêóøêà
Трек/Положение                           : 3
Исполнитель                              : ÁÈ-2
Жанр                                     : Other
Дата записи                              : 2013
Библиотека кодирования                   : LAME3.89 (alpha)
Аудио
Формат                                   : MPEG Audio
Версия формата                           : Version 1
Профиль формата                          : Layer 3
Продолжительность                        : 5 м. 38 с.
Вид битрейта                             : Постоянный
Битрейт                                  : 256 Кбит/сек
Каналы                                   : 2 канала
Частота                                  : 44,1 КГц
Метод сжатия                             : С потерями
Размер потока                            : 10,3 Мбайт (100%)
Библиотека кодирования                   : LAME3.89 (alpha)
Общее
Полное имя                               : C:\БИ-2 - Сборник каверов (2013)\4. Бумажный змей (оригинал А.Пугачёва).mp3
Формат                                   : MPEG Audio
Размер файла                             : 11,0 Мбайт
Продолжительность                        : 4 м. 48 с.
Режим общего битрейта                    : Постоянный
Общий поток                              : 320 Кбит/сек
Альбом                                   : Ñáîðíèê êàâåðîâ
Трек                                     : Áóìàæíûé çìåé
Трек/Положение                           : 4
Исполнитель                              : ÁÈ-2
Жанр                                     : Other
Дата записи                              : 2013
Аудио
Формат                                   : MPEG Audio
Версия формата                           : Version 1
Профиль формата                          : Layer 3
Режим                                    : Joint stereo
Продолжительность                        : 4 м. 48 с.
Вид битрейта                             : Постоянный
Битрейт                                  : 320 Кбит/сек
Каналы                                   : 2 канала
Частота                                  : 44,1 КГц
Метод сжатия                             : С потерями
Размер потока                            : 11,0 Мбайт (100%)
Общее
Полное имя                               : C:\БИ-2 - Сборник каверов (2013)\5. Вечная любовь (оригинал Агата Кристи).mp3
Формат                                   : MPEG Audio
Размер файла                             : 8,40 Мбайт
Продолжительность                        : 3 м. 38 с.
Режим общего битрейта                    : Постоянный
Общий поток                              : 320 Кбит/сек
Альбом                                   : Ñáîðíèê êàâåðîâ
Трек                                     : Âå÷íàÿ ëþáîâü
Трек/Положение                           : 5
Исполнитель                              : ÁÈ-2
Оригинал/Исполнитель                     : Àãàòà Êðèñòè
Жанр                                     : Other
Дата записи                              : 2013
Обложка                                  : Yes
Тип обложки                              : Cover (front)
MIME-тип обложки                         : image/jpg
Аудио
Формат                                   : MPEG Audio
Версия формата                           : Version 1
Профиль формата                          : Layer 3
Режим                                    : Joint stereo
Продолжительность                        : 3 м. 39 с.
Вид битрейта                             : Постоянный
Битрейт                                  : 320 Кбит/сек
Каналы                                   : 2 канала
Частота                                  : 44,1 КГц
Метод сжатия                             : С потерями
Размер потока                            : 8,35 Мбайт (99%)
Общее
Полное имя                               : C:\БИ-2 - Сборник каверов (2013)\6. Ночь, как вокзал (оригинал Квартал).mp3
Формат                                   : MPEG Audio
Размер файла                             : 8,09 Мбайт
Продолжительность                        : 3 м. 32 с.
Режим общего битрейта                    : Переменный
Общий поток                              : 320 Кбит/сек
Альбом                                   : Ñáîðíèê êàâåðîâ
Трек                                     : Íî÷ü, êàê âîêçàë
Трек/Положение                           : 6
Исполнитель                              : ÁÈ-2
Жанр                                     : Other
Дата записи                              : 2013
Библиотека кодирования                   : LAME3.98
Аудио
Формат                                   : MPEG Audio
Версия формата                           : Version 1
Профиль формата                          : Layer 3
Режим                                    : Joint stereo
Расширение режима                        : MS Stereo
Продолжительность                        : 3 м. 32 с.
Вид битрейта                             : Переменный
Битрейт                                  : 320 Кбит/сек
Каналы                                   : 2 канала
Частота                                  : 44,1 КГц
Метод сжатия                             : С потерями
Размер потока                            : 8,09 Мбайт (100%)
Библиотека кодирования                   : LAME3.98
Настройки программы                      : -m j -V 4 -q 0 -lowpass 17.5 --vbr-new
Общее
Полное имя                               : C:\БИ-2 - Сборник каверов (2013)\7. Тёмная ночь (оригинал М.Бернес).mp3
Формат                                   : MPEG Audio
Размер файла                             : 6,73 Мбайт
Продолжительность                        : 2 м. 55 с.
Режим общего битрейта                    : Постоянный
Общий поток                              : 320 Кбит/сек
Альбом                                   : Ñáîðíèê êàâåðîâ
Трек                                     : Ò¸ìíàÿ íî÷ü
Трек/Положение                           : 7
Исполнитель                              : ÁÈ-2
Жанр                                     : Other
Дата записи                              : 2013
Обложка                                  : Yes
MIME-тип обложки                         : image/jpeg
Аудио
Формат                                   : MPEG Audio
Версия формата                           : Version 1
Профиль формата                          : Layer 3
Режим                                    : Joint stereo
Продолжительность                        : 2 м. 55 с.
Вид битрейта                             : Постоянный
Битрейт                                  : 320 Кбит/сек
Каналы                                   : 2 канала
Частота                                  : 44,1 КГц
Метод сжатия                             : С потерями
Размер потока                            : 6,70 Мбайт (100%)
Общее
Полное имя                               : C:\БИ-2 - Сборник каверов (2013)\8. Снег кружится (оригинал ВИА Пламя).mp3
Формат                                   : MPEG Audio
Размер файла                             : 6,40 Мбайт
Продолжительность                        : 3 м. 59 с.
Режим общего битрейта                    : Постоянный
Общий поток                              : 224 Кбит/сек
Альбом                                   : Ñáîðíèê êàâåðîâ
Трек                                     : Ñíåã êðóæèòñÿ
Трек/Положение                           : 8
Исполнитель                              : ÁÈ-2
Жанр                                     : Other
Дата записи                              : 2013
Аудио
Формат                                   : MPEG Audio
Версия формата                           : Version 1
Профиль формата                          : Layer 3
Режим                                    : Joint stereo
Расширение режима                        : MS Stereo
Продолжительность                        : 3 м. 59 с.
Вид битрейта                             : Постоянный
Битрейт                                  : 224 Кбит/сек
Каналы                                   : 2 канала
Частота                                  : 44,1 КГц
Метод сжатия                             : С потерями
Размер потока                            : 6,39 Мбайт (100%)
Общее
Полное имя                               : C:\БИ-2 - Сборник каверов (2013)\9. Привет тебе (оригинал Центр).mp3
Формат                                   : MPEG Audio
Размер файла                             : 9,14 Мбайт
Продолжительность                        : 3 м. 59 с.
Режим общего битрейта                    : Постоянный
Общий поток                              : 320 Кбит/сек
Альбом                                   : Center Tribute
Трек                                     : Привет тебе
Трек/Положение                           : 07
Исполнитель                              : БИ-2
Жанр                                     : electornica/rock
Дата записи                              : 2010
Библиотека кодирования                   : LAME3.97
Обложка                                  : Yes
Тип обложки                              : Cover (front)
MIME-тип обложки                         : image/jpeg
Аудио
Формат                                   : MPEG Audio
Версия формата                           : Version 1
Профиль формата                          : Layer 3
Режим                                    : Joint stereo
Продолжительность                        : 3 м. 59 с.
Вид битрейта                             : Постоянный
Битрейт                                  : 320 Кбит/сек
Каналы                                   : 2 канала
Частота                                  : 44,1 КГц
Метод сжатия                             : С потерями
Размер потока                            : 9,12 Мбайт (100%)
Библиотека кодирования                   : LAME3.97
Общее
Полное имя                               : C:\БИ-2 - Сборник каверов (2013)\cover.jpg
Формат                                   : JPEG
Размер файла                             : 110 Кбайт
Изображения
Формат                                   : JPEG
Ширина                                   : 494 пикселя
Высота                                   : 472 пикселя
Цветовое пространство                    : YUV
Субдискретизация насыщенности            : 4:2:2
Битовая глубина                          : 8 бит
Метод сжатия                             : С потерями
Размер потока                            : 110 Кбайт (100%)
Other forum [Profile] [PM]
Display posts from previous:    
Reply to topic

The time now is: Today 04:37

All times are GMT + 3 Hours



You cannot post new topics in this forum
You cannot reply to topics in this forum
You cannot edit your posts in this forum
You cannot delete your posts in this forum
You cannot vote in polls in this forum
You cannot attach files in this forum
You cannot download files in this forum