Today is a free download without charge Download

Ночь Кометы / Night of the Comet (Том Эберхардт / Thom Eberhardt) [1984, США, ужасы, фантастика, комедия, HDTV 1080i] DVO + AVO (Визгунов) + original (eng) + sub (eng)

Reply to topic
 
Author
Message

Omen ®

Longevity: 8 years 5 months

Posts: 181087

Торрент-статистика

Post 07-May-2013 21:40

[Quote]

Ночь Кометы / Night of the Comet
Год выпуска: 1984
Страна: США
Жанр: ужасы, фантастика, комедия
Продолжительность: 01:35:07
Перевод1: Профессиональный (двухголосый закадровый)
Перевод2: Авторский (одноголосый закадровый)(С.Визгунов)
Субтитры: английские
Оригинальная аудиодорожка: английский
Режиссер: Том Эберхардт / Thom Eberhardt
В ролях: Роберт Белтран, Катрин Мэри Стюарт, Зои Келли Саймон, Шарон Фаррелл, Мэри Воронов, Джеффри Льюис, Питер Фокс, Майкл Боуэн, Девон Эриксон
Описание: Мир сошел с ума. К Земле приближается комета. Приходит Конец Света, в который никто не верил. Ночью - пир во время чумы, а утром наступает отрезвление. Сколько человек осталось на всей планете?
18-летняя Рэгги, мастерица ставить рекорды на игральных автоматах, её младшая сестренка Кэти, парень-полицейский, несколько преступников, дорвавшихся до свободы, которая им не очень-то и нужна, и зомби, там и сям выползающие на свет, словно отравленные химикатами крысы. А от всего прочего человечества - одна лишь пыль!
Горы пыли на улицах, по которым блуждает только ветер. Впрочем, есть еще где-то далеко военно-исследовательская станция, также подающая признаки жизни. Но смогут ли все те, кто уцелел после нашествия апокалиптической кометы объяснить, что же все-таки произошло на Земле и почему кому-то удалось выжить?

Релиз доступен благодаря проекту GORESEWAGE!
Саундтрек

Качество: HDTV 1080i
Формат: MKV
Видео кодек: H.264
Аудио кодек: AC3
Видео: 1920 x 1080; 29,970 fps; 17.1 Mbps
Аудио1: Русский, AC3 2.0 192 Kbps 48,0 КГц(DVO)
Аудио2: Русский, AC3 2.0 192 Kbps 48,0 КГц(Визгунов)
Аудио3: English, АС3 5.1 384 Kbps 48,0 КГц(Оригинал)
Субтитры: softsub (SRT)

MediaInfo

Общее
D:\HDFILMS\Night.of.the.Comet.1984.1080i.HDTV.2xRus.Eng.mkv
General
Complete name : D:\HDFILMS\Night.of.the.Comet.1984.1080i.HDTV.2xRus.Eng.mkv
Format : Matroska
File size : 12.1 GiB
Duration : 1h 35mn
Overall bit rate : 18.2 Mbps
Movie name : Night of the Comet
Encoded date : UTC 2013-05-06 15:52:06
Writing application : mkvmerge v6.2.0 ('Promised Land') built on Apr 28 2013 12:22:01
Writing library : libebml v1.3.0 + libmatroska v1.4.0
Video #1
ID : 1
Format : MPEG Video
Format version : Version 2
Format profile : [email protected]
Format settings, Matrix : Default
Codec ID : V_MPEG2
Codec ID/Info : MPEG 1 or 2 Video
Duration : 1h 35mn
Bit rate mode : Variable
Bit rate : 17.1 Mbps
Nominal bit rate : 80.0 Mbps
Width : 1 920 pixels
Height : 1 080 pixels
Display aspect ratio : 16:9
Frame rate : 29.970 fps
Colorimetry : 4:2:0
Scan type : Interlaced
Scan order : Top Field First
Bits/(Pixel*Frame) : 0.275
Stream size : 11.4 GiB (94%)
Title : Night of the Comet 1984
Audio #2
ID : 2
Format : AC-3
Format/Info : Audio Coding 3
Codec ID : A_AC3
Duration : 1h 35mn
Bit rate mode : Constant
Bit rate : 192 Kbps
Channel(s) : 2 channels
Channel positions : L R
Sampling rate : 48.0 KHz
Stream size : 131 MiB (1%)
Title : DVO AC3 2.0 192 kbps
Language : Russian
Audio #3
ID : 3
Format : AC-3
Format/Info : Audio Coding 3
Codec ID : A_AC3
Duration : 1h 35mn
Bit rate mode : Constant
Bit rate : 192 Kbps
Channel(s) : 2 channels
Channel positions : L R
Sampling rate : 48.0 KHz
Stream size : 131 MiB (1%)
Title : Vizgunov AC3 2.0 192 kbps
Language : Russian
Audio #4
ID : 4
Format : AC-3
Format/Info : Audio Coding 3
Codec ID : A_AC3
Duration : 1h 35mn
Bit rate mode : Constant
Bit rate : 384 Kbps
Channel(s) : 6 channels
Channel positions : Front: L C R, Surround: L R, LFE
Sampling rate : 48.0 KHz
Stream size : 261 MiB (2%)
Title : Original AC3 5.1 384 kbps
Text #5
ID : 5
Format : UTF-8
Codec ID : S_TEXT/UTF8
Codec ID/Info : UTF-8 Plain Text

Скриншоты

Other forum [Profile] [PM]
Display posts from previous:    
Reply to topic

The time now is: Today 08:38

All times are GMT + 3 Hours



You cannot post new topics in this forum
You cannot reply to topics in this forum
You cannot edit your posts in this forum
You cannot delete your posts in this forum
You cannot vote in polls in this forum
You cannot attach files in this forum
You cannot download files in this forum