Today is a free download without charge Download

Джонни-гитара / Johnny Guitar (Николас Рэй / Nicholas Ray) [1954, США, вестерн, BDRip 720p] AVO (Кузнецов) + Sub Rus + Original Eng

Reply to topic
 
Author
Message

Omen ®

Longevity: 8 years 5 months

Posts: 181087

Торрент-статистика

Post 07-May-2013 21:40

[Quote]

Джонни-гитара / Johnny Guitar
Страна: США
Жанр: вестерн
Год выпуска: 1954
Продолжительность: 01:50:25
Перевод: Авторский (одноголосый закадровый) С.Кузнецов
Cубтитры: русские
Оригинальная аудиодорожка: английский-Режиссер: Николас Рэй / Nicholas Ray
В ролях: Джоан Кроуфорд, Стерлинг Хейден, Мерседес МакКэмбридж, Скотт Брейди, Уорд Бонд, Бен Купер, Эрнест Боргнайн, Джон Кэрредин, Ройал Дэно, Фрэнк Фергюсон
Описание: В салун, управляемый одной очень самостоятельной женщиной (Виенной), приезжает одинокий гитарист — ее бывший возлюбленный. Вблизи строят железную дорогу. Через ближайший город должно пойти железнодорожное сообщение, что грозит сильно увеличить численность жителей городка. И еще больше: увеличит конкуренцию среди них же. Отчего в обществе начинает расти недовольство, которое перерастает в войну после убийства неизвестными вблизи населенного пункта всех пассажиров дилижанса. Раскаленные до предела местной «активисткой» Эммой Смол люди из городка жаждут наказать виновных. И выгнать Виенну, у которой каждую пятницу развлекается банда «Дансинга Кида», подозреваемая в убийствах. Отстояв салун в первый раз, Виенна и ее друг оказываются в еще более сложной ситуации. В этот раз ее подозревают еще в соучастии в ограблении банка. Чаша терпения переполнена. Как сказал Джонни Логан: «Нам придется сражаться… А сражаться — значит убивать!»
IMDb || КиноПоиск-Тип релиза: BDRip 720p [TayTO]
Контейнер: MKV
Видео: H.264/AVC, 968x720 at 23.976 fps, ~5538 kbps
Аудио#1: Russian: 48 kHz, AC3, 2/0 (L,R) ch, 192 kbps |Авторский одноголосый, C.Кузнецов|
Аудио#2: English: 48 kHz, DTS, 1.0 (L,R) ch, 755 kbps
Формат субтитров: softsub (SRT)
Сэмпл

MediaInfo

x264

x264 [info]: frame I:1203 Avg QP:17.41 size:107456
x264 [info]: frame P:30298 Avg QP:18.80 size: 50336
x264 [info]: frame B:127331 Avg QP:20.78 size: 23778
x264 [info]: consecutive B-frames: 1.3% 1.3% 4.2% 14.0% 12.9% 51.0% 6.5% 2.3% 6.0% 0.6%
encoded 158832 frames, 4.83 fps, 5654.12 kb/s
Format : Matroska
Format version : Version 2
File size : 5.10 GiB
Duration : 1h 50mn
Overall bit rate : 6 617 Kbps
Encoded date : UTC 2013-05-06 06:27:30
Writing application : mkvmerge v5.0.1 ('Es ist Sommer') built on Nov 6 2011 16:23:40
Writing library : libebml v1.2.2 + libmatroska v1.3.0
Video
ID : 1
Format : AVC
Format/Info : Advanced Video Codec
Format profile : [email protected]
Format settings, CABAC : Yes
Format settings, ReFrames : 11 frames
Codec ID : V_MPEG4/ISO/AVC
Duration : 1h 50mn
Bit rate : 5 538 Kbps
Width : 968 pixels
Height : 720 pixels
Display aspect ratio : 4:3
Frame rate : 23.976 fps
Color space : YUV
Chroma subsampling : 4:2:0
Bit depth : 8 bits
Scan type : Progressive
Bits/(Pixel*Frame) : 0.331
Stream size : 4.27 GiB (84%)
Writing library : x264 core 125 r2208 d9d2288
Encoding settings : cabac=1 / ref=11 / deblock=1:-3:-3 / analyse=0x3:0x113 / me=tesa / subme=11 / psy=1 / psy_rd=1.05:0.00 / mixed_ref=1 / me_range=16 / chroma_me=1 / trellis=2 / 8x8dct=1 / cqm=0 / deadzone=21,11 / fast_pskip=0 / chroma_qp_offset=-2 / threads=12 / lookahead_threads=2 / sliced_threads=0 / nr=0 / decimate=0 / interlaced=0 / bluray_compat=0 / constrained_intra=0 / bframes=9 / b_pyramid=2 / b_adapt=2 / b_bias=0 / direct=3 / weightb=1 / open_gop=0 / weightp=2 / keyint=250 / keyint_min=23 / scenecut=40 / intra_refresh=0 / rc=crf / mbtree=0 / crf=16.7 / qcomp=0.60 / qpmin=0 / qpmax=69 / qpstep=4 / ip_ratio=1.40 / pb_ratio=1.30 / aq=1:0.70
Language : English
Default : Yes
Forced : No
Matrix coefficients : BT.709-5, BT.1361, IEC 61966-2-4 709, SMPTE RP177
Audio #1
ID : 2
Format : AC-3
Format/Info : Audio Coding 3
Mode extension : CM (complete main)
Codec ID : A_AC3
Duration : 1h 50mn
Bit rate mode : Constant
Bit rate : 192 Kbps
Channel(s) : 2 channels
Channel positions : Front: L R
Sampling rate : 48.0 KHz
Bit depth : 16 bits
Compression mode : Lossy
Stream size : 152 MiB (3%)
Language : Russian
Default : Yes
Forced : No
Audio #2
ID : 3
Format : DTS
Format/Info : Digital Theater Systems
Codec ID : A_DTS
Duration : 1h 50mn
Bit rate mode : Constant
Bit rate : 755 Kbps
Channel(s) : 1 channel
Channel positions : Front: C
Sampling rate : 48.0 KHz
Bit depth : 24 bits
Compression mode : Lossy
Stream size : 596 MiB (11%)
Language : English
Default : No
Forced : No
Text
ID : 4
Format : UTF-8
Codec ID : S_TEXT/UTF8
Codec ID/Info : UTF-8 Plain Text
Language : Russian
Default : No
Forced : No
Menu
00:00:00.000 : en:00:00:00.000
00:09:06.212 : en:00:09:06.212
00:23:14.226 : en:00:23:14.226
00:33:11.740 : en:00:33:11.740
00:47:22.590 : en:00:47:22.590
00:57:26.151 : en:00:57:26.151
01:10:28.099 : en:01:10:28.099
01:30:12.365 : en:01:30:12.365

Скриншоты

TayTO vs Source
Other forum [Profile] [PM]
Display posts from previous:    
Reply to topic

The time now is: Today 10:41

All times are GMT + 3 Hours



You cannot post new topics in this forum
You cannot reply to topics in this forum
You cannot edit your posts in this forum
You cannot delete your posts in this forum
You cannot vote in polls in this forum
You cannot attach files in this forum
You cannot download files in this forum