Today is a free download without charge Download

Linkin Park - Rock im Park 03.06.2012 HD 720p [2012, Alternative Rock, HDTV 720p]

Reply to topic
 
Author
Message

Omen ®

Longevity: 8 years 3 months

Posts: 181087

Торрент-статистика

Post 07-May-2013 21:40

[Quote]

Linkin Park - Rock im Park 03.06.2012 HD 720p
Жанр: Alternative Rock
Продолжительность: 11m:33s
Год выпуска: 2012
Описание:
June 03, 2012
Nurnberg, Germany
Rock im Park

Треклист:
01. LIES GREED MISERY
02. Points Of Authority
03. Waiting For The End
Качество: HDTV 720p
Контейнер: TS
Видео кодек: H.264
Видео: AVC | 1280x720 | 12.1 Mbps | 50.000 fps
Аудио: MPEG Audio Layer 2 | 192 Kbps | 2 ch | 48.0 KHz
Аудио 2: AC-3 | 448 Kbps | 2 ch | 48.0 KHz
P.S. Кто может соединить от сюда Points Of Authority с этой раздачей http:///*spam*//forum/viewtopic.php?t=4429597 без потери качества видео и 2 дорог? И у нас появится самая полная версия данного концерта в качестве.
Вот куда его надо добавить Points Of Authority
Треклист:
01. Given Up
02. Faint
03. From The Inside
04. Somewhere I Belong
05. Numb (video screen visuals)
06. LIES GREED MISERY
07. Points Of Authority
08. Waiting For The End
09. Breaking The Habit (video screen visuals)
10. LOATR/SOTD/Iridescent (Ballad Medley)
11. BURN IT DOWN
12. What I've Done
13. New Divide
14. In The End
15. Papercut
16. One Step Closer

Отчёт MediaInfo / BDInfo

GeneralID : 1 (0x1)Complete name : D:\Linkin Park - Rock im Park 2012-06-03 BR HD 720p.tsFormat : MPEG-TSFile size : 1.08 GiBDuration : 11mn 33sOverall bit rate mode : VariableOverall bit rate : 13.4 MbpsMaximum Overall bit rate : 35.5 Mbps
VideoID : 4113 (0x1011)Menu ID : 1 (0x1)Format : AVCFormat/Info : Advanced Video CodecFormat profile : [email protected] settings, CABAC : YesFormat settings, ReFrames : 4 framesCodec ID : 27Duration : 11mn 33sBit rate mode : VariableBit rate : 12.1 MbpsMaximum bit rate : 40.0 MbpsWidth : 1 280 pixelsHeight : 720 pixelsDisplay aspect ratio : 16:9Frame rate : 50.000 fpsColor space : YUVChroma subsampling : 4:2:0Bit depth : 8 bitsScan type : ProgressiveBits/(Pixel*Frame) : 0.262Stream size : 1 000 MiB (90%)
Audio #1ID : 4352 (0x1100)Menu ID : 1 (0x1)Format : MPEG AudioFormat version : Version 1Format profile : Layer 2Codec ID : 4Duration : 11mn 33sBit rate mode : ConstantBit rate : 192 KbpsChannel(s) : 2 channelsSampling rate : 48.0 KHzCompression mode : LossyDelay relative to video : -170msStream size : 15.9 MiB (1%)Language : German
Audio #2ID : 4353 (0x1101)Menu ID : 1 (0x1)Format : AC-3Format/Info : Audio Coding 3Mode extension : CM (complete main)Format settings, Endianness : BigCodec ID : 129Duration : 11mn 33sBit rate mode : ConstantBit rate : 448 KbpsChannel(s) : 2 channelsChannel positions : Front: L RSampling rate : 48.0 KHzBit depth : 16 bitsCompression mode : LossyDelay relative to video : -158msStream size : 37.1 MiB (3%)Language : German

Скриншоты

Other forum [Profile] [PM]
Display posts from previous:    
Reply to topic

The time now is: Today 21:28

All times are GMT + 3 Hours



You cannot post new topics in this forum
You cannot reply to topics in this forum
You cannot edit your posts in this forum
You cannot delete your posts in this forum
You cannot vote in polls in this forum
You cannot attach files in this forum
You cannot download files in this forum