Today is a free download without charge Download

21 и больше / 21 & Over (Джон Лукас, Скотт Мур) [2013.., США, Комедия, DVD5]

Reply to topic
 
Author
Message

Meshanik ®

Gender:

Longevity: 8 years 10 months

Posts: 3866

Location: Los Angeles

Торрент-статистика

Post 07-May-2013 04:51

[Quote]

21 и больше / 21 & Over- Русское название: 21 и больше
Оригинальное название: 21 & Over
Год выпуска: 2013
Производство: США / Mandeville Films, Relativity Media, SkyLand Entertainment, Virgin Produced
Жанр: Комедия
Продолжительность: 01:29:19
Перевод: Дублированный [Лицензия]
Субтитры: Отсутствуют
Дата мировой премьеры: 28 февраля 2013
Дата российской премьеры: 7 марта 2013, «Парадиз»
Дата выхода DVD релиза: 30 апреля 2013, «Парадиз / Активижен»
Дата выхода Blu-Ray релиза: 21 мая 2013, «Парадиз / Активижен»
Режиссер: Джон Лукас, Скотт Мур
Продюсер: Дэвид Хоберман, Райан Кэвэна, Тодд Либерман
Актеры: Скайлар Эстин, Сара Райт, Майлз Теллер, Джонатан Кельтц, Джастин Чон, Сара Райт, Джонатан Кельтц, Франсуа Чау, Расселл Ходжкинсон, Дэниэл Буко, Расселл Меркадо, Джози Лор
Описание фильма:
Двое друзей подбивают третьего отметить его 21-ый день рождения прямо накануне важного экзамена в медицинский колледж. Никто не замечает, как одна кружка пива превращается в море выпивки, а вечеринка — в бурное и незабываемое приключение с музыкой и девчонками. И где же они окажутся утром?

Качество видео: DVD5 R5
Видеокодек: MPEG-2
Битрейт видео: ~5552 kbps
Размер кадра: PAL 16:9 ([email protected]х576)
Аудио 1: 48 kHz, Dolby AC3 5.1 384 kbps, [Русский Дублированный]
Аудио 2: 48 kHz, Dolby AC3 2.0 192 kbps, [Русский Дублированный]
Доп. материалы: Скоро на DVD

DVDInfo:

Title: 21.i.bolshe.2013.D.DVD5
Size: 4.23 Gb ( 4 436 914,00 KBytes ) - DVD-5
Enabled regions: 1, 2, 3, 4, 5, 6, 7, 8
VTS_01 :
Play Length: 01:29:19
Video: PAL 16:9 (720x576) VBR, Auto Letterboxed
Audio:
Russian, AC3, 3/2 (L,C,R,SL,SR)+LFE ch, 384 kbps, Delay 0 mSec
Russian, AC3, 2/0 (L,R) ch, 192 kbps, Delay 0 mSec
VTS_02 :
Play Length: 00:09:36
Video: PAL 16:9 (720x576) VBR, Auto Letterboxed
Audio:
Not specified (Dolby AC3, 2 ch)

MediaInfo:

General
Complete name : D:\Video\21.i.bolshe.2013.D.DVD5\VIDEO_TS\VTS_01_1.VOB
Format : MPEG-PS
File size : 1 024 MiB
Duration : 22mn 53s
Overall bit rate mode : Variable
Overall bit rate : 6 253 Kbps
Video
ID : 224 (0xE0)
Format : MPEG Video
Format version : Version 2
Format profile : [email protected]
Format settings, BVOP : Yes
Format settings, Matrix : Custom
Format settings, GOP : Variable
Duration : 22mn 53s
Bit rate mode : Variable
Bit rate : 5 552 Kbps
Maximum bit rate : 9 000 Kbps
Width : 720 pixels
Height : 576 pixels
Display aspect ratio : 16:9
Frame rate : 25.000 fps
Standard : PAL
Color space : YUV
Chroma subsampling : 4:2:0
Bit depth : 8 bits
Scan type : Progressive
Scan order : Top Field First
Compression mode : Lossy
Bits/(Pixel*Frame) : 0.536
Time code of first frame : 01:00:00:00
Time code source : Group of pictures header
Stream size : 909 MiB (89%)
Audio #1
ID : 189 (0xBD)-128 (0x80)
Format : AC-3
Format/Info : Audio Coding 3
Mode extension : CM (complete main)
Format settings, Endianness : Big
Muxing mode : DVD-Video
Duration : 22mn 53s
Bit rate mode : Constant
Bit rate : 384 Kbps
Channel(s) : 6 channels
Channel positions : Front: L C R, Side: L R, LFE
Sampling rate : 48.0 KHz
Bit depth : 16 bits
Compression mode : Lossy
Stream size : 62.9 MiB (6%)
Audio #2
ID : 189 (0xBD)-129 (0x81)
Format : AC-3
Format/Info : Audio Coding 3
Mode extension : CM (complete main)
Format settings, Endianness : Big
Muxing mode : DVD-Video
Duration : 22mn 53s
Bit rate mode : Constant
Bit rate : 192 Kbps
Channel(s) : 2 channels
Channel positions : Front: L R
Sampling rate : 48.0 KHz
Bit depth : 16 bits
Compression mode : Lossy
Stream size : 31.4 MiB (3%)
Menu

Скриншоты меню:

     
Скриншоты:
     
     
-
Other forum [Profile] [PM]

Dracula

Longevity: 7 years 5 months

Posts: 11216

Торрент-статистика

Post 07-May-2013 18:40 (after 13 hours)

Топик был перенесен из форума Фильмы 2013 (новинки) в форум Новинки (DVD, HD Video)


RUGUI
 

Dracula

Longevity: 7 years 5 months

Posts: 11216

Торрент-статистика

Post 02-Jan-2014 15:52 (after 7 months 26 days)

Топик был перенесен из форума Новинки (DVD, HD Video) в форум Зарубежное кино (HD Video)


kogesan
 
Display posts from previous:    
Reply to topic

The time now is: Today 10:32

All times are GMT + 3 Hours



You cannot post new topics in this forum
You cannot reply to topics in this forum
You cannot edit your posts in this forum
You cannot delete your posts in this forum
You cannot vote in polls in this forum
You cannot attach files in this forum
You cannot download files in this forum