Today is a free download without charge Download

Космополис / Cosmopolis (Дэвид Кроненберг) [2012.., США, Триллер, драма, DVD5]

Reply to topic
 
Author
Message

Meshanik ®

Gender:

Longevity: 8 years 10 months

Posts: 3866

Location: Los Angeles

Торрент-статистика

Post 07-May-2013 03:47

[Quote]

Космополис / Cosmopolis
«Как далеко он может пойти, прежде чем он зайдет слишком далеко?»
- Русское название: Космополис
Оригинальное название: Cosmopolis
Год выпуска: 2012
Производство: Alfama Films / France 2 Cinéma / Prospero Pictures / Rai Cinema / Leopardo Filmes [Франция, Канада, Португалия, Италия]
Жанр: Триллер, драма
Продолжительность: 01:44:29
Перевод: Дублированный [Лицензия]
Субтитры: Отсутствуют-Режиссер: Дэвид Кроненберг
Продюсер: Паулу Бранку, Мартин Кац, Джозеф Боччиа
В ролях: Роберт Паттинсон, Жюльет Бинош, Сара Гадон, Матье Амальрик, Джей Барушель, Кевин Дюран, К’Наан, Эмили Хэмпшир, Саманта Мортон, Пол Джаматти-Описание фильма:
24 часа из жизни 28-летнего миллиардера-финансиста Эрика Пэкера, который изменяет своей молодой жене, подвергается нападению и разом теряет все свое состояние. Действие ленты будет разворачиваться на Манхэттене в течение одних суток.-Дата мировой премьеры: 25 мая 2012
Дата российской премьеры: 19 июля 2012, «Top Film Distribution»
Дата выхода DVD релиза: 6 сентября 2012, «Новый Диск», «New Dream media»- -Качество видео: DVD5
Видео: MPEG-2, [email protected] (PAL 16:9), ~5500 kbps, Bit/Pixel: 0.537
Аудио: AC3 5.1, 384 kbps [Русский - дублированный]
-

Дополнительные материалы...

Отсутствуют
-

DVDInfo…

Title: Космополис-Cosmopolis.(2012).DVD5
Size: 4.12 Gb ( 4 321 756 KBytes ) - DVD-5
Enabled regions: 1, 2, 3, 4, 5, 6, 7, 8
VTS_01 :
Play Length: 01:44:29
Video: PAL 16:9 (720x576) VBR, Auto Pan&Scan
Audio:
Russian (Dolby AC3, 6 ch)
VTS_02 :
Play Length: 00:00:20
Video: PAL 4:3 (720x576) VBR
Audio:
English (Dolby AC3, 2 ch)
VTS_03 :
Play Length: 00:00:08
Video: PAL 4:3 (720x576) VBR
VTS_04 :
Play Length: 00:00:30+00:00:05
Video: PAL 16:9 (720x576) VBR, Auto Pan&Scan
Audio:
English (Dolby AC3, 2 ch)
-

MediaInfo...

Полное имя : D:\Космополис-Cosmopolis.(2012).DVD5\VIDEO_TS\VTS_01_3.VOB
Формат : MPEG-PS
Размер файла : 1024 Мбайт
Продолжительность : 23 м.
Режим общего битрейта : Переменный
Общий поток : 6075 Кбит/сек
Видео
Идентификатор : 224 (0xE0)
Формат : MPEG Video
Версия формата : Version 2
Профиль формата : [email protected]
Параметр BVOP формата : Да
Параметр матрицы формата : Выборочная
Параметр GOP формата : M=3, N=15
Продолжительность : 23 м.
Вид битрейта : Переменный
Битрейт : 5570 Кбит/сек
Максимальный битрейт : 8000 Кбит/сек
Ширина : 720 пикселей
Высота : 576 пикселей
Соотношение сторон : 16:9
Частота кадров : 25,000 кадров/сек
Стандарт вещания : PAL
Цветовое пространство : YUV
Субдискретизация насыщенности : 4:2:0
Битовая глубина : 8 бит
Тип развёртки : Чересстрочная
Порядок развёртки : Верхнее поле первое
Метод сжатия : С потерями
Бит/(Пиксели*Кадры) : 0.537
Размер потока : 939 Мбайт (92%)
Аудио
Идентификатор : 189 (0xBD)-128 (0x80)
Формат : AC-3
Формат/Информация : Audio Coding 3
Расширение режима : CM (complete main)
Параметр Endianness формата : Big
Режим смешивания : DVD-Video
Продолжительность : 23 м.
Вид битрейта : Постоянный
Битрейт : 384 Кбит/сек
Каналы : 6 каналов
Расположение каналов : Front: L C R, Side: L R, LFE
Частота : 48,0 КГц
Битовая глубина : 16 бит
Метод сжатия : С потерями
Задержка видео : -480 мс.
Размер потока : 64,7 Мбайт (6%)
Меню
-

Скриншоты меню...

   
-Скриншоты:-          -
Other forum [Profile] [PM]
Display posts from previous:    
Reply to topic

The time now is: Today 02:56

All times are GMT + 3 Hours



You cannot post new topics in this forum
You cannot reply to topics in this forum
You cannot edit your posts in this forum
You cannot delete your posts in this forum
You cannot vote in polls in this forum
You cannot attach files in this forum
You cannot download files in this forum