Today is a free download without charge Download

Иисус Христос - Суперзвезда / Jesus Christ Superstar [1973, Rock Opera, BDRip 1080p (c BlueRay)]

Reply to topic
 
Author
Message

Omen ®

Longevity: 8 years 3 months

Posts: 181087

Торрент-статистика

Post 07-May-2013 01:18

[Quote]

Иисус Христос - Суперзвезда / Jesus Christ Superstar
Жанр: Rock Opera
Продолжительность: 01:46:36
Год выпуска: 1973
Описание: Киноверсия легендарной рок-оперы композитора Эндрю Ллойда Уэббера на стихи Тима Райса, сделанная в форме спектакля, разыгранного современными актерами на фоне живописных ближневосточных пейзажей. Помимо великолепной музыки и вокала фильм интересен необычной трактовкой темы Христа, которая представляет собой альтернативу ортодоксальному христианству. Фильм в целом получился иллюстративным, предлагающим в дополнение к великолепной музыке цветные картинки из жизни Христа, снятые на натуре в Израиле. Но привлекают аттракционные моменты, введенные Джуисоном в ткань повествования (мотив фильма в фильме, когда на студийном автобусе в пустыню приезжают актеры, чтобы разыграть этот спектакль про Христа; неожиданные кадры с танками вместо фаланг римских легионеров). Кроме того, оригинальна трактовка образа Иуды, роль которого исполняет чернокожий актер Карл Андерсон.
Доп. информация:
Режиссер: Норман Джуисон
В ролях: Тед Нили, Карл Андерсон, Ивонн Эллиман, Бэрри Деннен, Боб Бингхэм, Ларри Маршалл, Джош Мостел, Курт Ягджян, Пол Томас, Пи Дугласс, Роберт ЛюПон, Джонатан Винн, Томми Уолш, Ричард Молинэр, Дэвид Девир, Джефф Хислоп, Ричард Орбах, Шуки Вагнер, Дарсел Винн, Марсия МакБрум, Сэлли Нил, Лийан Грэйнджер, Кейт Энн Райт, Венди Молтби, Денис Пенс, Эллен Хоффман, Рики Орен, Лиа Кестин, Мейр Израэль, Хаим Баши, Дэвид Рейван, Питер Луриа, Том Гест, Дэвид Бэркэн, Ноам Коэн, Моше Узил
Субтитры: Русские, английские
Качество: BDRip 1080p
Контейнер: MKV
Видео кодек: H.264
Аудио кодек: DTS
Видео: MPEG-4 1920x816 (2.35:1) 10.2 Mb/s 23.976 fps
Аудио: English (DTS, 2 ch, 1510 Кb/s), (AC3, 2 ch, 224 Кb/s)

Отчёт MediaInfo / BDInfo

Jesus.Christ.Superstar.1973.Sub.BDRip.1080p.mkv General UniqueID : 184212635548430122343744583477600155458 (0x8A961026E8FE11DBB6B97B1585377742) Complete name : F:\Torrent_Download\Jesus.Christ.Superstar.1973.Sub.BDRip.1080p.mkv Format : Matroska File size : 8.91 GiB Duration : 1h 46mn Overall bit rate : 12.0 Mbps Encoded date : UTC 2013-04-26 13:11:02 Writing application : mkvmerge v6.1.0 ('Old Devil') built on Mar 2 2013 14:32:37 Writing library : libebml v1.3.0 + libmatroska v1.4.0 Video #1 ID : 1 Format : AVC Format/Info : Advanced Video Codec Format profile : [email protected] Format settings, CABAC : Yes Format settings, ReFrames : 5 frames Codec ID : V_MPEG4/ISO/AVC Duration : 1h 46mn Bit rate : 10.2 Mbps Width : 1 920 pixels Height : 816 pixels Display aspect ratio : 2.35:1 Frame rate : 23.976 fps Color space : YUV Chroma subsampling : 4:2:0 Bit depth : 8 bits Scan type : Progressive Bits/(Pixel*Frame) : 0.272 Stream size : 7.44 GiB (84%) Writing library : x264 core 130 r2273 b3065e6 Encoding settings : cabac=1 / ref=5 / deblock=1:-3:-3 / analyse=0x3:0x113 / me=umh / subme=8 / psy=1 / psy_rd=1.00:0.00 / mixed_ref=1 / me_range=16 / chroma_me=1 / trellis=1 / 8x8dct=1 / cqm=0 / deadzone=21,11 / fast_pskip=1 / chroma_qp_offset=-2 / threads=12 / lookahead_threads=2 / sliced_threads=0 / nr=0 / decimate=1 / interlaced=0 / bluray_compat=0 / constrained_intra=0 / bframes=3 / b_pyramid=2 / b_adapt=2 / b_bias=0 / direct=3 / weightb=1 / open_gop=0 / weightp=2 / keyint=240 / keyint_min=24 / scenecut=40 / intra_refresh=0 / rc_lookahead=50 / rc=2pass / mbtree=1 / bitrate=10233 / ratetol=1.0 / qcomp=0.60 / qpmin=0 / qpmax=69 / qpstep=4 / cplxblur=20.0 / qblur=0.5 / ip_ratio=1.40 / aq=1:1.00 Language : English Audio #2 ID : 2 Format : DTS Format/Info : Digital Theater Systems Codec ID : A_DTS Duration : 1h 46mn Bit rate mode : Constant Bit rate : 1 510 Kbps Channel(s) : 2 channels Channel positions : Front: L R Sampling rate : 48.0 KHz Bit depth : 24 bits Compression mode : Lossy Stream size : 1.12 GiB (13%) Title : DTS [email protected] Language : English Audio #3 ID : 3 Format : AC-3 Format/Info : Audio Coding 3 Mode extension : CM (complete main) Codec ID : A_AC3 Duration : 1h 46mn Bit rate mode : Constant Bit rate : 224 Kbps Channel(s) : 2 channels Channel positions : Front: L R Sampling rate : 48.0 KHz Bit depth : 16 bits Compression mode : Lossy Stream size : 171 MiB (2%) Title : DD AC3 [email protected] Language : English Text #4 ID : 4 Format : ASS Codec ID : S_TEXT/ASS Codec ID/Info : Advanced Sub Station Alpha Compression mode : Lossless Title : Rus - Literal Edition 1 (ASS) Language : Russian Text #5 ID : 5 Format : UTF-8 Codec ID : S_TEXT/UTF8 Codec ID/Info : UTF-8 Plain Text Title : Rus - Literal Edition 1 (SRT) Language : Russian Text #6 ID : 6 Format : ASS Codec ID : S_TEXT/ASS Codec ID/Info : Advanced Sub Station Alpha Compression mode : Lossless Title : Rus - Literal Edition 2 (ASS) Language : Russian Text #7 ID : 7 Format : UTF-8 Codec ID : S_TEXT/UTF8 Codec ID/Info : UTF-8 Plain Text Title : Rus - Literal Edition 2 (SRT) Language : Russian Text #8 ID : 8 Format : ASS Codec ID : S_TEXT/ASS Codec ID/Info : Advanced Sub Station Alpha Compression mode : Lossless Title : Rus - Pig on the Wing & I.V. Alexandrov edition (ASS) Language : Russian Text #9 ID : 9 Format : UTF-8 Codec ID : S_TEXT/UTF8 Codec ID/Info : UTF-8 Plain Text Title : Rus - Pig on the Wing & I.V. Alexandrov edition (SRT) Language : Russian Text #10 ID : 10 Format : ASS Codec ID : S_TEXT/ASS Codec ID/Info : Advanced Sub Station Alpha Compression mode : Lossless Title : Rus - Parygin M.V (ASS) Language : Russian Text #11 ID : 11 Format : UTF-8 Codec ID : S_TEXT/UTF8 Codec ID/Info : UTF-8 Plain Text Title : Rus - Parygin M.V (SRT) Language : Russian Text #12 ID : 12 Format : UTF-8 Codec ID : S_TEXT/UTF8 Codec ID/Info : UTF-8 Plain Text Title : Eng (SRT) Language : English Text #13 ID : 13 Format : UTF-8 Codec ID : S_TEXT/UTF8 Codec ID/Info : UTF-8 Plain Text Title : Eng-SDH (SRT) Language : English Text #14 ID : 14 Format : ASS Codec ID : S_TEXT/ASS Codec ID/Info : Advanced Sub Station Alpha Compression mode : Lossless Title : Eng (ASS) Language : English Text #15 ID : 15 Format : UTF-8 Codec ID : S_TEXT/UTF8 Codec ID/Info : UTF-8 Plain Text Title : Eng (SRT) Language : English

Скриншоты



Other forum [Profile] [PM]
Display posts from previous:    
Reply to topic

The time now is: Today 12:23

All times are GMT + 3 Hours



You cannot post new topics in this forum
You cannot reply to topics in this forum
You cannot edit your posts in this forum
You cannot delete your posts in this forum
You cannot vote in polls in this forum
You cannot attach files in this forum
You cannot download files in this forum