Today is a free download without charge Download

Discovery: Сквозь червоточину с Морганом Фрименом (Сезон №4, серия №1) / Through The Wormhole with Morgan Freeman (2013) HDTVRip

Reply to topic
 
Author
Message

UndegraundMen ®

Longevity: 7 years 7 months

Posts: 25145

Торрент-статистика

Post 07-May-2013 00:00

[Quote]

Discovery: Сквозь червоточину с Морганом Фрименом (Сезон №4, серия №1) / Through The Wormhole with Morgan Freeman (2013) HDTVRip - Режиссер / Телекомпания: SCI HD & Discovery
Русское название: Сквозь червоточину с Морганом Фрименом
Оригинальное название: Through The Wormhole with Morgan Freeman
Год выпуска: 2013
Жанр: Документальный, научно-познавательный, исследования, гипотезы
Выпущено: The Incubator, Revelations Entertainment, Discovery Communications, Science Channel
Описание:
Сериал "Через Червоточину" с ведущим Морганом Фрименом исследует самые глубокие тайны существования - вопросы, которые всегда озадачивали человечество. Из чего мы сделаны? Что было перед началом всего? Действительно ли мы одиноки во вселенной? Есть ли создатель? Эти вопросы были обдуманы самыми изящными умами человеческого рода. Теперь наука приблизилась к сути, в область, где твердые факты и свидетельства могут быть в состоянии предоставить нам ответы вместо философских теорий.
"Через Червоточину" примирит самые яркие умы и лучшие идеи с самых передних краев наук - астрофизики, астробиологии, квантовой механики, теории струн, и более - чтобы показать экстраординарную правду о нашей Вселенной.
В выпуске: Это частица бога? / Is There a God Particle?
Режиссёр: Geoffrey Sharp
Ведущий: Морган Фримен
Язык субтитров: Отсутствует
Перевод: Одноголосый закадровый
Продолжительность: ~ 00:42:53
Видеокодек: XVID
Битрейт видео: ~993 kb/s
Размер кадра: 640 x 360
Качество видео: HDTVRip
Аудиокодек: MP3, 2ch.
Битрейт аудио: 128 kb/s

MediaInfo

Формат : AVI
Формат/Информация : Audio Video Interleave
Размер файла : 347 Мбайт
Продолжительность : 42 м.
Общий поток : 1130 Кбит/сек
Программа кодирования : VirtualDubMod 1.5.10.2 (build 2540/release)
Библиотека кодирования : VirtualDubMod build 2540/release
Видео
Идентификатор : 0
Формат : MPEG-4 Visual
Профиль формата : Advanced [email protected]
Параметр BVOP формата : 2
Параметр QPel формата : Нет
Параметр GMC формата : Без точки перехода
Параметр матрицы формата : Default (H.263)
Идентификатор кодека : XVID
Идентификатор кодека/Подсказка : XviD
Продолжительность : 42 м.
Битрейт : 993 Кбит/сек
Ширина : 640 пикселей
Высота : 360 пикселей
Соотношение сторон : 16:9
Частота кадров : 23,976 кадра/сек
Цветовое пространство : YUV
Субдискретизация насыщенности : 4:2:0
Битовая глубина : 8 бит
Тип развёртки : Прогрессивная
Метод сжатия : С потерями
Бит/(Пиксели*Кадры) : 0.180
Размер потока : 305 Мбайт (88%)
Библиотека кодирования : XviD 64
Аудио
Идентификатор : 1
Формат : MPEG Audio
Версия формата : Version 1
Профиль формата : Layer 3
Режим : Joint stereo
Расширение режима : MS Stereo
Идентификатор кодека : 55
Идентификатор кодека/Подсказка : MP3
Продолжительность : 42 м.
Вид битрейта : Постоянный
Битрейт : 128 Кбит/сек
Каналы : 2 канала
Частота : 48,0 КГц
Метод сжатия : С потерями
Размер потока : 39,3 Мбайт (11%)
Выравнивание : Соединение по промежуткам
Продолжительность промежутка : 42 мс. (1,00 видеокадр)
Время предзагрузки промежутка : 504 мс.
Библиотека кодирования : LAME3.99r
Настройки программы : -m j -V 4 -q 5 -lowpass 17 -b 128
Скриншоты:                    
Other forum [Profile] [PM]
Display posts from previous:    
Reply to topic

The time now is: Today 13:13

All times are GMT + 3 Hours



You cannot post new topics in this forum
You cannot reply to topics in this forum
You cannot edit your posts in this forum
You cannot delete your posts in this forum
You cannot vote in polls in this forum
You cannot attach files in this forum
You cannot download files in this forum