Today is a free download without charge Download

Солдаты бизоны / Buffalo Soldiers ( Чарльз Хейд / Charles Haid) ( Драма, Вестерн) (1997) DVDRip

Reply to topic
 
Author
Message

Koralina ®

Longevity: 10 years

Posts: 994

Location: Lithuania

Торрент-статистика

Post 06-May-2013 22:00

[Quote]

Солдаты бизоны / Buffalo Soldiers (1997) DVDRip Русское название: Солдаты Буффало
Оригинальное название: Buffalo Soldiers
Год выхода: 1997
Режиссер: Чарльз Хейд / Charles Haid
В ролях: Ламонт Бентли, Том Бауэр, Тимоти Басфилд, Гэбриел Коссес, Дэнни Гловер, Боб Гантон, Кейт Джеффресон, Роберт Нотт, Карл Ламбли, Клифтон Пауэл
Страна производства: США
Продолжительность: 01:34:33
Перевод: Одноголосый закадровый
Продюсер: Гордон Вульф, Майкл А. Чавез, Пен Деншэм
Сценарий: Фрэнк Милитери, Джонатан Клейн, Susan Rhinehart
Премьера в мире: 7 декабря 1997
Жанр: драма, вестерн, история
Описание:"Черные белые люди" - так индейцы называли выходцев из Африки. Черные - по цвету кожи, но белые по культуре, типу мышления и поведения. В 1866 году из их числа были укомплектованы два полка - 9 и 10 кавалерийские. Апачи прозвали их "Солдаты-Бизоны" (Buffalo Soldiers") за темный цвет кожи и копну курчавых волос, придававших им в глазах индейцев сходство с этим грозным и мощным животным. Белые презрительно называли черных всадников "freedmen" - "вольноотпущенники", или "brunettes" - "брюнетками". В глазах большинства белых солдат и офицеров они - существа низшей расы. Генерал Д.А. Кастер отказался от командования 9 кавалерией, считая это для себя оскорблением.
1880 год, Нью-Мексико. В самом разгаре кампания против одного из самых воинственных племён апачей — Мескалеро, под предводительством «кровожадного» Викторио, чья голова оценена в 3 тысячи долларов. Белые используют черных для усмирения краснокожих. Перед героями этого великолепно поставленного вестерна стоит непростой выбор — им надлежит понять свою роль в том водовороте событий, в который они оказались втянуты. Станут ли бывшие рабы в угоду своим вчерашним хозяевам убивать и преследовать последних свободных апачей?
Рейтинг MPAA: G - Нет возрастных ограничений
Рейтинг IMDB:
Рейтинг Kinopoisk:
Качество: DVDRip
Формат: AVI
Видео кодек: XviD
Аудио кодек: AC3, 2 ch
Видео: 688x512 (1.34:1), 25 fps, XviD build 65 ~1901 kbps avg, 0.22 bit/pixel
Аудио: 48 kHz, AC3 Dolby Digital, 2/0 (L,R) ch, ~320 kbps
Релиз группа:
Исходник DVD5,PAL 4:3 (720x576) VBR Letterboxed

Медиаинфо

Код:
Format                                   : AVI
Format/Info                              : Audio Video Interleave
File size                                : 1.47 GiB
Duration                                 : 1h 34mn
Overall bit rate                         : 2 231 Kbps
Director                                 : CrimeanFox
Writing application                      : VirtualDubMod 1.5.10.3 | http://www.virtualdub-fr.org || (build 2550/release)
Writing library                          : VirtualDub build 32706/release
Copyright                                : RG.Vanila.films
Video
ID                                       : 0
Format                                   : MPEG-4 Visual
Format profile                           : Advanced [email protected]
Format settings, BVOP                    : 2
Format settings, QPel                    : No
Format settings, GMC                     : No warppoints
Format settings, Matrix                  : Default (MPEG)
Codec ID                                 : XVID
Codec ID/Hint                            : XviD
Duration                                 : 1h 34mn
Bit rate                                 : 1 902 Kbps
Width                                    : 688 pixels
Height                                   : 512 pixels
Display aspect ratio                     : 4:3
Frame rate                               : 25.000 fps
Color space                              : YUV
Chroma subsampling                       : 4:2:0
Bit depth                                : 8 bits
Scan type                                : Progressive
Compression mode                         : Lossy
Bits/(Pixel*Frame)                       : 0.216
Stream size                              : 1.26 GiB (85%)
Writing library                          : XviD 65
Audio
ID                                       : 1
Format                                   : AC-3
Format/Info                              : Audio Coding 3
Mode extension                           : CM (complete main)
Format settings, Endianness              : Big
Codec ID                                 : 2000
Duration                                 : 1h 34mn
Bit rate mode                            : Constant
Bit rate                                 : 320 Kbps
Channel(s)                               : 2 channels
Channel positions                        : Front: L R
Sampling rate                            : 48.0 KHz
Bit depth                                : 16 bits
Compression mode                         : Lossy
Stream size                              : 216 MiB (14%)
Alignment                                : Split accross interleaves
Interleave, duration                     : 40 ms (1.00 video frame)
Interleave, preload duration             : 500 ms

Скриншоты

           
   
   

_________________
Other forum [Profile] [PM]
Display posts from previous:    
Reply to topic

The time now is: Today 13:21

All times are GMT + 3 Hours



You cannot post new topics in this forum
You cannot reply to topics in this forum
You cannot edit your posts in this forum
You cannot delete your posts in this forum
You cannot vote in polls in this forum
You cannot attach files in this forum
You cannot download files in this forum