Today is a free download without charge Download

Суррогат / The Sessions ( Бен Луин ) (2012, Драма ) [720p] BDRip

Reply to topic
 
Author
Message

Витек1 ®

Gender:

Longevity: 8 years 3 months

Posts: 451

Location: Житомир

Торрент-статистика

Post 06-May-2013 21:24

[Quote]

Суррогат / The Sessions - Русское название: Суррогат
Оригинальное название: The Sessions
Год выпуска: 2012
Производство: США
Жанр: Драма
Перевод: Многоголосый закадровый [Лицензия]
Субтитры: Вшитые отключаемые
Язык субтитров: Русский, Украинский, Английский
Режиссер: Бен Луин
Актеры: Джон Хоукс, Хелен Хант, Уильям Х. Мэйси, Мун Бладгуд, Анника Маркс, Ри Перлман, Адам Аркин, У. Эрл Браун, Робин Вайгерт, Блейк Линдсли
Описание фильма:
Тридцатишестилетний Марк О`Брайен, подключенный к аппарату для искусственного дыхания, решает, что больше не хочет быть девственником...

Дата мировой премьеры: 23 января 2012
Дата выхода DVD релиза: 7 марта 2013, «Двадцатый Век Фокс СНГ»
Продолжительность: 01:35:07
Качество видео: BDRip [720p]
Видеокодек: MPEG-4 AVC/H.264
Видео: 1280x694, ~6027 Кбит/с
Аудио 1: DTS, 6 ch, 755 Кбит/с [Многоголосый, Русский]
Аудио 2: DTS, 6 ch, 1510 Кбит/с [Оригинал, Английский]

MediaInfo:

Общее
Уникальный идентификатор : 193093761125884802550062667634695367656 (0x914481731BD564CD9E3C0D1647066BE8)
Полное имя : Surrogat.2012.BDRip.720p.mkv
Формат : Matroska
Версия формата : Version 2
Размер файла : 5,50 Гбайт
Продолжительность : 1 ч. 35 м.
Общий поток : 8282 Кбит/сек
Название фильма : IRONCLUB
Дата кодирования : UTC 2013-02-03 10:26:13
Программа кодирования : mkvmerge v5.2.0 ('I can't explain') built on Dec 18 2011 18:12:03
Библиотека кодирования : libebml v1.2.3 + libmatroska v1.3.0
Видео
Идентификатор : 1
Формат : AVC
Формат/Информация : Advanced Video Codec
Профиль формата : [url=mailto:[email protected]][email protected][/url]
Параметр CABAC формата : Да
Параметр ReFrames формата : 9 кадров
Идентификатор кодека : V_MPEG4/ISO/AVC
Продолжительность : 1 ч. 35 м.
Битрейт : 6027 Кбит/сек
Ширина : 1280 пикселей
Высота : 694 пикселя
Соотношение сторон : 16:9
Частота кадров : 23,976 кадра/сек
Цветовое пространство : YUV
Субдискретизация насыщенности : 4:2:0
Битовая глубина : 8 бит
Тип развёртки : Прогрессивная
Бит/(Пиксели*Кадры) : 0.283
Размер потока : 3,89 Гбайт (71%)
Заголовок : The.Sessions.2012.BluRay.720p.DTS.x264-CHD
Библиотека кодирования : x264 core 125 r2208 d9d2288
Настройки программы : cabac=1 / ref=9 / deblock=1:1:1 / analyse=0x3:0x113 / me=umh / subme=10 / psy=1 / psy_rd=1.00:0.05 / mixed_ref=1 / me_range=32 / chroma_me=1 / trellis=2 / 8x8dct=1 / cqm=0 / deadzone=21,11 / fast_pskip=0 / chroma_qp_offset=-2 / threads=12 / lookahead_threads=2 / sliced_threads=0 / nr=0 / decimate=1 / interlaced=0 / bluray_compat=0 / constrained_intra=0 / bframes=6 / b_pyramid=2 / b_adapt=2 / b_bias=0 / direct=3 / weightb=1 / open_gop=0 / weightp=2 / keyint=250 / keyint_min=23 / scenecut=40 / intra_refresh=0 / rc=2pass / mbtree=0 / bitrate=6027 / ratetol=1.0 / qcomp=0.70 / qpmin=0 / qpmax=69 / qpstep=4 / cplxblur=20.0 / qblur=0.5 / ip_ratio=1.40 / pb_ratio=1.30 / aq=2:1.00
Язык : English
Default : Да
Forced : Да
Аудио #1
Идентификатор : 2
Формат : DTS
Формат/Информация : Digital Theater Systems
Идентификатор кодека : A_DTS
Продолжительность : 1 ч. 35 м.
Вид битрейта : Постоянный
Битрейт : 755 Кбит/сек
Каналы : 6 каналов
Расположение каналов : Front: L C R, Side: L R, LFE
Частота : 48,0 КГц
Битовая глубина : 24 бит
Метод сжатия : С потерями
Размер потока : 513 Мбайт (9%)
Заголовок : DTS 5.1 @ 768 kbps - MVO, BD EUR
Язык : Russian
Default : Да
Forced : Да
Аудио #2
Идентификатор : 3
Формат : DTS
Формат/Информация : Digital Theater Systems
Идентификатор кодека : A_DTS
Продолжительность : 1 ч. 35 м.
Вид битрейта : Постоянный
Битрейт : 1510 Кбит/сек
Каналы : 6 каналов
Расположение каналов : Front: L C R, Side: L R, LFE
Частота : 48,0 КГц
Битовая глубина : 24 бит
Метод сжатия : С потерями
Размер потока : 1,00 Гбайт (18%)
Заголовок : DTS 5.1 @ 1536 kbps
Язык : English
Default : Нет
Forced : Нет
Текст #1
Идентификатор : 4
Формат : UTF-8
Идентификатор кодека : S_TEXT/UTF8
Идентификатор кодека/Информация : UTF-8 Plain Text
Язык : Russian
Default : Нет
Forced : Нет
Текст #2
Идентификатор : 5
Формат : UTF-8
Идентификатор кодека : S_TEXT/UTF8
Идентификатор кодека/Информация : UTF-8 Plain Text
Язык : Ukrainian
Default : Нет
Forced : Нет
Текст #3
Идентификатор : 6
Формат : UTF-8
Идентификатор кодека : S_TEXT/UTF8
Идентификатор кодека/Информация : UTF-8 Plain Text
Язык : English
Default : Нет
Forced : Нет
Меню
00:00:00.000 : en:Chapter 01
00:03:45.225 : en:Chapter 02
00:08:18.372 : en:Chapter 03
00:13:29.016 : en:Chapter 04
00:17:04.982 : en:Chapter 05
00:19:21.243 : en:Chapter 06
00:23:21.233 : en:Chapter 07
00:27:56.508 : en:Chapter 08
00:33:08.486 : en:Chapter 09
00:37:57.400 : en:Chapter 10
00:41:44.210 : en:Chapter 11
00:45:08.747 : en:Chapter 12
00:50:01.164 : en:Chapter 13
00:53:56.858 : en:Chapter 14
00:55:28.616 : en:Chapter 15
01:00:20.908 : en:Chapter 16
01:03:12.580 : en:Chapter 17
01:06:56.470 : en:Chapter 18
01:09:34.753 : en:Chapter 19
01:10:26.597 : en:Chapter 20
01:13:15.974 : en:Chapter 21
01:21:01.273 : en:Chapter 22
01:27:06.304 : en:Chapter 23
01:30:39.642 : en:Chapter 24
Скриншоты:
       
       

_________________
Скачал сам, дай скачать другому!!!Не забудь сказать -
Other forum [Profile] [PM]
Display posts from previous:    
Reply to topic

The time now is: Today 23:37

All times are GMT + 3 Hours



You cannot post new topics in this forum
You cannot reply to topics in this forum
You cannot edit your posts in this forum
You cannot delete your posts in this forum
You cannot vote in polls in this forum
You cannot attach files in this forum
You cannot download files in this forum