Today is a free download without charge Download

Linkin Park - Las Vegas, NV, USA, Billboard Music Awards [FEED] [2012, Alternative Rock, HDTV 720p]

Reply to topic
 
Author
Message

Omen ®

Longevity: 8 years 4 months

Posts: 181087

Торрент-статистика

Post 06-May-2013 21:16

[Quote]

Linkin Park - Las Vegas, NV, USA, Billboard Music Awards [FEED]
Жанр: Alternative Rock
Продолжительность: 4m:22s
Год выпуска: 2012
Описание: Выступление Linkin Park на Billboard Music Awards 20 мая 2012 на MGM Grand Garden Arena в Лас Вегасе.
Треклист::
1. BURN IT DOWN
Качество: HDTV 720p
Контейнер: TS
Видео кодек: MPEG2
Аудио кодек: MP2
Видео: AVC | 1280x720 | 23.8 Mbps | 59.940 fps
Аудио: 384 Kbps | 2 ch | 48.0 KHz

Отчёт MediaInfo / BDInfo

GeneralID : 1 (0x1)Complete name : D:\Linkin Park 2012 Billboard Music Adwards 25Mbps 720p H.264 HDTV.tsFormat : MPEG-TSFile size : 796 MiBDuration : 4mn 22sOverall bit rate mode : VariableOverall bit rate : 25.5 Mbps
VideoID : 101 (0x65)Menu ID : 1 (0x1)Format : AVCFormat/Info : Advanced Video CodecFormat profile : [email protected] settings, CABAC : YesFormat settings, ReFrames : 6 framesCodec ID : 27Duration : 4mn 22sBit rate : 23.8 MbpsWidth : 1 280 pixelsHeight : 720 pixelsDisplay aspect ratio : 16:9Frame rate : 59.940 fpsColor space : YUVChroma subsampling : 4:2:0Bit depth : 8 bitsScan type : ProgressiveBits/(Pixel*Frame) : 0.431Stream size : 745 MiB (94%)Color primaries : BT.709Transfer characteristics : BT.709Matrix coefficients : BT.709
AudioID : 105 (0x69)Menu ID : 1 (0x1)Format : MPEG AudioFormat version : Version 1Format profile : Layer 2Mode : Dual monoCodec ID : 3Duration : 4mn 22sBit rate mode : ConstantBit rate : 384 KbpsChannel(s) : 2 channelsSampling rate : 48.0 KHzCompression mode : LossyStream size : 12.0 MiB (2%)Language : aag

Скриншоты

Other forum [Profile] [PM]
Display posts from previous:    
Reply to topic

The time now is: Today 19:13

All times are GMT + 3 Hours



You cannot post new topics in this forum
You cannot reply to topics in this forum
You cannot edit your posts in this forum
You cannot delete your posts in this forum
You cannot vote in polls in this forum
You cannot attach files in this forum
You cannot download files in this forum