Today is a free download without charge Download

Торренте 3: Защитник / Torrente 3: El protector (Сантьяго Сегура / Santiago Segura) [2005, Испания, боевик, комедия, криминал, BDRemux 1080p] VO (ViruseProject) + VO (postal98) + Original Spa + Sub (Eng)

Reply to topic
 
Author
Message

Omen ®

Longevity: 8 years 5 months

Posts: 181087

Торрент-статистика

Post 06-May-2013 17:12

[Quote]

Торренте 3: Защитник / Torrente 3: El protector- Страна: Испания
Студия: Amiguetes Entertainment S.L.
Жанр: боевик, комедия, криминал
Год выпуска: 2005
Продолжительность: 01:37:45
Перевод:
  • Одноголосый закадровый ViruseProject (Евгений Киселев)
  • Одноголосый закадровый postal98 (Юсупов Вадим)
Cубтитры: английские
Оригинальная аудиодорожка: испанский-Режиссер: Сантьяго Сегура / Santiago Segura
В ролях: Сантьяго Сегура, Хосе Мота, Хавьер Гутиеррез, Carlos Latre, Тони Лебланк, Эдуардо Дж. Мартинез, Ивонн Скио, Сильвия Гамбино, Ruth Zanon, Фабио Тести и др.-Описание: Третья часть похождений любимого неадекватного народного Испанского героя и циничного подонка-извращенца в одном лице. Как обычно, много простого и понятного не всем юмора намного ниже пояса, много шуток про медийных персонажей, которые сами охотно снимаются в эпизодах и бла, бла, бла...
- -Тип релиза: BDRemux 1080p
Контейнер: MKV
Видео: MPEG-4 AVC Video / 26985 kbps / 1080p / 24,000 fps / 16:9 / High Profile 4.1
Аудио #1: Russian: 48 kHz, AC3, 2/0 (L,R), ~128.00 kbps avg - [VO, ViruseProject]
Аудио #2: Russian: 48 kHz, AC3, 2/0 (L,R), ~192.00 kbps avg - [VO, postal98]
Аудио #3: Spanish: DTS-HD Master Audio 5.1 / (48 kHz / 1831 kbps / 16-bit) (DTS Core: 5.1 / 48 kHz / 768 kbps / 16-bit) - [Original]
Формат субтитров: softsub (SRT)
Чаптеры: Сохранены оригинальные чаптеры с Blu-Ray
- - -

Скриншоты


-

MediaInfo

Код:
Format                                   : Matroska
Format version                           : Version 2
File size                                : 19.8 GiB
Duration                                 : 1h 37mn
Overall bit rate mode                    : Variable
Overall bit rate                         : 29.1 Mbps
Movie name                               : Arifis
Encoded date                             : UTC 2013-05-06 12:27:44
Writing application                      : mkvmerge v5.2.1 ('A Far Off Place') built on Jan  2 2012 23:21:10
Writing library                          : libebml v1.2.3 + libmatroska v1.3.0
Video
ID                                       : 1
Format                                   : AVC
Format/Info                              : Advanced Video Codec
Format profile                           : [email protected]
Format settings, CABAC                   : Yes
Format settings, ReFrames                : 4 frames
Format settings, GOP                     : M=3, N=24
Codec ID                                 : V_MPEG4/ISO/AVC
Duration                                 : 1h 37mn
Bit rate mode                            : Variable
Maximum bit rate                         : 35.0 Mbps
Width                                    : 1 920 pixels
Height                                   : 1 080 pixels
Display aspect ratio                     : 16:9
Frame rate mode                          : Constant
Frame rate                               : 24.000 fps
Standard                                 : NTSC
Color space                              : YUV
Chroma subsampling                       : 4:2:0
Bit depth                                : 8 bits
Scan type                                : Progressive
Title                                    : Torrente 3: El protector (Arifis)
Default                                  : Yes
Forced                                   : No
Color primaries                          : BT.709
Transfer characteristics                 : BT.709
Matrix coefficients                      : BT.709
Audio #1
ID                                       : 2
Format                                   : AC-3
Format/Info                              : Audio Coding 3
Mode extension                           : CM (complete main)
Format settings, Endianness              : Big
Codec ID                                 : A_AC3
Duration                                 : 1h 37mn
Bit rate mode                            : Constant
Bit rate                                 : 128 Kbps
Channel(s)                               : 2 channels
Channel positions                        : Front: L R
Sampling rate                            : 48.0 KHz
Bit depth                                : 16 bits
Compression mode                         : Lossy
Stream size                              : 89.1 MiB (0%)
Title                                    : AC3 2.0 @ 128 kbps - VO, ViruseProject
Language                                 : Russian
Default                                  : Yes
Forced                                   : No
Audio #2
ID                                       : 3
Format                                   : AC-3
Format/Info                              : Audio Coding 3
Mode extension                           : CM (complete main)
Format settings, Endianness              : Big
Codec ID                                 : A_AC3
Duration                                 : 1h 37mn
Bit rate mode                            : Constant
Bit rate                                 : 192 Kbps
Channel(s)                               : 2 channels
Channel positions                        : Front: L R
Sampling rate                            : 48.0 KHz
Bit depth                                : 16 bits
Compression mode                         : Lossy
Stream size                              : 134 MiB (1%)
Title                                    : AC3 2.0 @ 192 kbps - VO, postal98
Language                                 : Russian
Default                                  : No
Forced                                   : No
Audio #3
ID                                       : 4
Format                                   : DTS
Format/Info                              : Digital Theater Systems
Format profile                           : MA / Core
Mode                                     : 16
Format settings, Endianness              : Big
Codec ID                                 : A_DTS
Duration                                 : 1h 37mn
Bit rate mode                            : Variable
Bit rate                                 : Unknown / 768 Kbps
Channel(s)                               : 6 channels
Channel positions                        : Front: L C R, Side: L R, LFE
Sampling rate                            : 48.0 KHz
Bit depth                                : 16 bits
Compression mode                         : Lossless / Lossy
Title                                    : DTS-HD MA 5.1 Original @ 1831 kbps
Language                                 : Spanish
Default                                  : No
Forced                                   : No
Text
ID                                       : 5
Format                                   : UTF-8
Codec ID                                 : S_TEXT/UTF8
Codec ID/Info                            : UTF-8 Plain Text
Title                                    : Full Eng
Language                                 : English
Default                                  : No
Forced                                   : No
Menu
00:00:00.000                             : :Chapter 01
00:06:02.792                             : :Chapter 02
00:08:43.375                             : :Chapter 03
00:11:49.208                             : :Chapter 04
00:16:08.958                             : :Chapter 05
00:20:54.792                             : :Chapter 06
00:23:58.125                             : :Chapter 07
00:28:53.042                             : :Chapter 08
00:34:03.750                             : :Chapter 09
00:39:00.000                             : :Chapter 10
00:44:37.292                             : :Chapter 11
00:46:44.292                             : :Chapter 12
00:51:42.833                             : :Chapter 13
00:55:16.750                             : :Chapter 14
00:59:47.750                             : :Chapter 15
01:04:48.750                             : :Chapter 16
01:10:23.667                             : :Chapter 17
01:15:25.333                             : :Chapter 18
01:19:54.458                             : :Chapter 19
01:24:54.750                             : :Chapter 20
01:31:04.083                             : :Chapter 21
-
Other forum [Profile] [PM]
Display posts from previous:    
Reply to topic

The time now is: Today 23:04

All times are GMT + 3 Hours



You cannot post new topics in this forum
You cannot reply to topics in this forum
You cannot edit your posts in this forum
You cannot delete your posts in this forum
You cannot vote in polls in this forum
You cannot attach files in this forum
You cannot download files in this forum