Today is a free download without charge Download

Швартовка / The Mooring (Гленн Уитроу / Glenn Withrow) [2012, США, триллер, ужасы, WEB-DL 720p] VO + Original (Eng) + Sub (eng)

Reply to topic
 
Author
Message

Omen ®

Longevity: 8 years 5 months

Posts: 181087

Торрент-статистика

Post 06-May-2013 17:12

[Quote]

Швартовка : The Mooring«Missing persons don't just vanish» Страна: США
Год выпуска: 2012
Жанр: триллер, ужасы
Продолжительность: 01:29:54
Перевод: Одноголосый закадровый [den904]
русские субтитры: нет-Режиссёр: Гленн Уитроу : Glenn Withrow
В главных ролях: Халли Тодд, Томас Уилсон Браун, Karli Blalock, Анна Гудвин, Ларисса Хейден, Лилли Хендирксон, Эрин МакИнтош, Оливия Мейер, Хейли Наккарато, Jessica Pepeli, Кэти Симпсон, Бруклин Тейт-Описание: Группа девочек-подростков из Айдахо собралась для того, чтобы отправиться в поход на лодке. Этот поход должен был изменить их жизнь навсегда. Так и случилось.- -Качество: WEB-DL 720p
Формат: MKV
Видео кодек: AVC
Аудио кодек: АС3
Видео: 1280x716, 23.976 fps, ~3 915 kbps avg, 0.178 bit/pixel
Аудио #1: 48 kHz, AC3 Dolby Digital, 2/0 (L,R) ch, ~192 kbps
Аудио #2: 48 kHz, AC3 Dolby Digital, 3/2 (L,C,R,l,r) + LFE ch, ~384 kbps
субтитры: английские
навигация по главам: 10 глав

скриншоты

MediaInfo

Общее
Уникальный идентификатор : 251955882205621514700128157958104859918 (0xBD8CF014FFF07D75A516DAC667AAC50E)
Полное имя : D:\Im\Швартовка\The Mooring.2012.WEB-DL 720p.mkv
Формат : Matroska
Версия формата : Version 4 / Version 2
Размер файла : 2,88 Гбайт
Продолжительность : 1 ч. 29 м.
Общий поток : 4583 Кбит/сек
Название фильма : [email protected]
Дата кодирования : UTC 2013-05-06 12:55:35
Программа кодирования : mkvmerge v6.1.0 ('Old Devil') built on Mar 2 2013 14:32:37
Библиотека кодирования : libebml v1.3.0 + libmatroska v1.4.0
Видео
Идентификатор : 1
Формат : AVC
Формат/Информация : Advanced Video Codec
Профиль формата : [email protected]
Параметр CABAC формата : Нет
Параметр ReFrames формата : 2 кадра
Идентификатор кодека : V_MPEG4/ISO/AVC
Продолжительность : 1 ч. 29 м.
Битрейт : 3915 Кбит/сек
Ширина : 1280 пикселей
Высота : 716 пикселей
Соотношение сторон : 16:9
Частота кадров : 23,976 кадра/сек
Цветовое пространство : YUV
Субдискретизация насыщенности : 4:2:0
Битовая глубина : 8 бит
Тип развёртки : Прогрессивная
Бит/(Пиксели*Кадры) : 0.178
Размер потока : 2,46 Гбайт (85%)
Язык : English
Default : Да
Forced : Нет
Основные цвета : BT.709-5, BT.1361, IEC 61966-2-4, SMPTE RP177
Характеристики трансфера : BT.709-5, BT.1361
Коэффициенты матрицы : BT.709-5, BT.1361, IEC 61966-2-4 709, SMPTE RP177
Аудио #1
Идентификатор : 2
Формат : AC-3
Формат/Информация : Audio Coding 3
Расширение режима : CM (complete main)
Идентификатор кодека : A_AC3
Продолжительность : 1 ч. 29 м.
Вид битрейта : Постоянный
Битрейт : 192 Кбит/сек
Каналы : 2 канала
Расположение каналов : Front: L R
Частота : 48,0 КГц
Битовая глубина : 16 бит
Метод сжатия : С потерями
Размер потока : 123 Мбайт (4%)
Заголовок : VO [den904]
Язык : Russian
Default : Да
Forced : Нет
Аудио #2
Идентификатор : 3
Формат : AC-3
Формат/Информация : Audio Coding 3
Расширение режима : CM (complete main)
Идентификатор кодека : A_AC3
Продолжительность : 1 ч. 29 м.
Вид битрейта : Постоянный
Битрейт : 384 Кбит/сек
Каналы : 6 каналов
Расположение каналов : Front: L C R, Side: L R, LFE
Частота : 48,0 КГц
Битовая глубина : 16 бит
Метод сжатия : С потерями
Размер потока : 247 Мбайт (8%)
Заголовок : ENG
Язык : English
Default : Нет
Forced : Нет
Текст
Идентификатор : 4
Формат : UTF-8
Идентификатор кодека : S_TEXT/UTF8
Идентификатор кодека/Информация : UTF-8 Plain Text
Заголовок : Eng Sub
Язык : English
Default : Нет
Forced : Нет
Меню
00:00:00.000 : en:Chapter 1
00:08:03.000 : en:Chapter 2
00:16:51.000 : en:Chapter 3
00:26:02.000 : en:Chapter 4
00:35:33.000 : en:Chapter 5
00:43:48.000 : en:Chapter 6
00:51:15.000 : en:Chapter 7
01:01:13.000 : en:Chapter 8
01:10:56.000 : en:Chapter 9
01:20:01.000 : en:Chapter 10
Не забываем оставлять комментарии к релизу, мне интересно Ваше мнение!
Other forum [Profile] [PM]
Display posts from previous:    
Reply to topic

The time now is: Today 23:25

All times are GMT + 3 Hours



You cannot post new topics in this forum
You cannot reply to topics in this forum
You cannot edit your posts in this forum
You cannot delete your posts in this forum
You cannot vote in polls in this forum
You cannot attach files in this forum
You cannot download files in this forum