Today is a free download without charge Download

Жених по объявлению (Владимир Чубриков) [2012.., Россия, Мелодрама, HDTV 1080i]

Reply to topic
 
Author
Message

Meshanik ®

Gender:

Longevity: 9 years 3 months

Posts: 3866

Location: Los Angeles

Торрент-статистика

Post 06-May-2013 16:22

[Quote]

Жених по объявлениюЛюбовь того стоит- Русское название: Жених по объявлению
Год выпуска: 2012
Производство: Россия
Жанр: Мелодрама
Продолжительность: 01:38:00
Перевод: Оригинал (Русский)
Субтитры: Вшитые (отключаемые)
Язык субтитров: Русский-Режиссер: Владимир Чубриков
Актеры: Анастасия Заворотнюк, Сергей Астахов, Мария Звонарёва, Владимир Стержаков, Татьяна Мухина, Сергей Легостаев, Сергей Шеховцов, Сергей Тезов, Валерий Иваков, Дмитрий Мизгулин, Петр Катрага-Описание фильма:
У молодой женщины было все, о чем только можно мечтать в этой жизни: солидный банковский счет, уважение коллег, свой собственный бизнес. Единственное, что беспокоило молодую и успешную женщину - отсутствие спутника жизни. Все попытки наладить свою частную жизнь заканчивались провалом.
Устав от бесконечных знакомств, она хотела забросить все попытки найти суженного, но случай все расставил на свои места. В одной из газет была рубрика знакомств. Пролистывая страницы, женщина наткнулась на одно интересное объявление. Неизвестный поэт обещал посвятить все свое существование своей половинке. Ее сердце дрогнуло, и она согласилась на встречу...--Качество видео: HDTV [1080i]
Видеокодек: AVC
Битрейт видео: 7859 Кбит/сек
Размер кадра: 1920x1080
Аудио : Русский, MP3, 2 ch, 192 Кбит/сек
-

MediaInfo

Код:
Общее
Идентификатор                            : 1 (0x1)
Полное имя                               : E:\Раздачи\Видео\Жених по объявлению (2012) HDTV.ts
Формат                                   : MPEG-TS
Размер файла                             : 5,80 Гбайт
Продолжительность                        : 1 ч. 38 м.
Общий поток                              : 8471 Кбит/сек
Видео
Идентификатор                            : 2931 (0xB73)
Идентификатор меню                       : 1 (0x1)
Формат                                   : AVC
Формат/Информация                        : Advanced Video Codec
Профиль формата                          : [url=mailto:[email protected]][email protected][/url]
Параметр CABAC формата                   : Да
Параметр ReFrames формата                : 3 кадра
Идентификатор кодека                     : 27
Продолжительность                        : 1 ч. 38 м.
Битрейт                                  : 7859 Кбит/сек
Ширина                                   : 1920 пикселей
Высота                                   : 1080 пикселей
Соотношение сторон                       : 16:9
Частота кадров                           : 25,000 кадров/сек
Цветовое пространство                    : YUV
Субдискретизация насыщенности            : 4:2:0
Битовая глубина                          : 8 бит
Тип развёртки                            : MBAFF
Бит/(Пиксели*Кадры)                      : 0.152
Размер потока                            : 5,38 Гбайт (93%)
Аудио
Идентификатор                            : 2932 (0xB74)
Идентификатор меню                       : 1 (0x1)
Формат                                   : MPEG Audio
Версия формата                           : Version 1
Профиль формата                          : Layer 2
Идентификатор кодека                     : 3
Продолжительность                        : 1 ч. 38 м.
Вид битрейта                             : Постоянный
Битрейт                                  : 192 Кбит/сек
Каналы                                   : 2 канала
Частота                                  : 48,0 КГц
Метод сжатия                             : С потерями
Размер потока                            : 135 Мбайт (2%)
Язык                                     : Russian
Текст
Идентификатор                            : 2934 (0xB76)-888
Идентификатор меню                       : 1 (0x1)
Формат                                   : Teletext Subtitle
Язык                                     : Russian
Скриншоты:
         
         -
Other forum [Profile] [PM]

Dracula

Longevity: 7 years 11 months

Posts: 11001

Торрент-статистика

Post 11-May-2013 15:40 (after 4 days)

Топик был перенесен из форума Наше кино (2012) в форум Наше кино (HD Video)


RUGUI
 
Display posts from previous:    
Reply to topic

The time now is: Today 13:49

All times are GMT + 3 Hours



You cannot post new topics in this forum
You cannot reply to topics in this forum
You cannot edit your posts in this forum
You cannot delete your posts in this forum
You cannot vote in polls in this forum
You cannot attach files in this forum
You cannot download files in this forum