Today is a free download without charge Download

Звездные войны: Сага / Star Wars: The Complete Saga (9-Disc Limited Edition) (Джордж Лукас, Ирвин Кершнер, Ричард Маркуанд) [1977 г., фантастика, фэнтези, боевик, приключения,<wbr> Blu-Ray, 1080p] [Полное Коллекционно<wbr>е Издание] Dub (

Reply to topic
 
Author
Message

Meshanik ®

Gender:

Longevity: 8 years 10 months

Posts: 3866

Location: Los Angeles

Торрент-статистика

Post 06-May-2013 14:47

[Quote]

Звездные войны: Сага / Star Wars: The Complete Saga (9-Disc Limited Edition)/ Blu-Ray/2011 (Полное Коллекционное Издание)
Год выпуска: 1977, 1980, 1983, 1999, 2002, 2005 г.
Дата выхода Blu-Ray: 2011
Производство: США, Lucasfilm Ltd.
Жанр: фантастика, фэнтези, боевик, приключения
Продолжительность: 13:25:00
Перевод: Профессиональный (полное дублирование) [[Лицензия]]
Субтитры: Русские, китайские, немецкие, итальянские, корейские, испанские, тайские, турецкие
Режиссер: Джордж Лукас / George Lucas, Ирвин Кершнер / Irvin Kershner, Ричард Маркуэнд / Richard Marquand
В ролях
Марк Хэмилл, Харрисон Форд, Кэрри Фишер, Питер Кашинг, Алек Гиннесс, Энтони Дэниэльс, Кенни Бейкер, Питер Мейхью, Дэвид Праус, Джеймс Эрл Джонс, Билли Ди Уильямс, Фрэнк Оз, Марк Хэмилл, Энтони Дэниэльс, Себастиан Шоу, Ян МакДиармид, Лайм Нисон, Эван МакГрегор, Натали Портман, Джейк Ллойд, Пернилла Огаст, Оливер Форд Дэвис, Теренс Стэмп, Рей Парк, Силас Карсон, Сэмюэль Джексон, Доминик Уэст, София Коппола, Кира Найтли, Хейден Кристенсен, Кристофер Ли, Темуэра Моррисон, Даниэль Логан, Джимми Смитс
Описание
О САГЕ: Свершилось то, чего многие так ждали - выпущена Полная Коллекция Саги «Звездные Войны» (включая дополнительные материалы) Limited Edition на 9-ти Blu-ray дисках... «За день до премьеры «Звездных Войн» мы построили на пляже замок из песка. Потом, когда стало известно, что билеты на премьерный сеанс распроданы, мы построили еще один. Мы загадали что, если приливом смоет наши замки, фильм провалится, а если нет – все пойдет нормально» - (Стивен Спилберг)... После премьеры мир охватила «Звездная лихорадка». Марк Хэммил, Харрисон Форд и Кэрри Фишер, сыгравшие главных героев в фильме, проснулись знаменитыми, в считанные дни став звездами мирового масштаба. «Звездные Войны» смотрели и пересматривали. Миллионы мальчишек и девчонок, посмотрев фильм, возомнили себя джедаями, побежав скупать игрушечных Вуки, модели звездолетов, роботов, плакаты с изображениями любимых героев и мастерить световые мечи. Люди постарше бросали фразы «да пребудет с тобой Сила» или «у меня очень нехорошее предчувствие». «Звездные Войны» подарили миру понятие Силы...
Источник/Качество: Blu-Ray
Формат: BDMV

Звездные войны&#58; Эпизод 1 - Скрытая угроза / Star Wars&#58; Episode I - The Phantom Menace


Год выпуска: 1999
Продолжительность: 02:16:10
Перевод: Профессиональный (полное дублирование)
Субтитры: Английский, Болгарский, Хорватский, Чешский, Итальянский, Румынский, Русский, Словенский, Турецкий.
В ролях:Лиам Нисон, Юэн МакГрегор, Натали Портман, Джейк Ллойд, Иэн МакДайармид, Пернилла Аугуст, Оливер Форд Дэвис, Хью Куарши, Ахмед Бест, Энтони Дэниелс, Сэмюэл Л. Джексон, София Коппола, Кира Найтли
Описание: Мирная и процветающая планета Набу. Торговая федерация, не желая платить налоги, вступает в прямой конфликт с королевой Амидалой, правящей на планете, что приводит к войне. На стороне королевы и республики в ней участвуют два рыцаря-джедая: учитель и ученик, Квай-Гон-Джин и Оби-Ван Кеноби...
На диске:
• Аудиокомментарии;
• Просмотр сцен под разным углом обзора.
Качество: Blu-Ray
Формат: BDMV
Видео: MPEG-4 AVC, MPEG-4 AVC Video, 30405 kbps, 1080p / 23,976 fps / 16:9 / High Profile 4.1
Аудио №1: DTS-HD Master Audio, English, 4815 kbps, 6.1 / 48 kHz / 4815 kbps / 24-bit (DTS Core: 6.1-ES / 48 kHz / 1509 kbps / 24-bit)
Аудио №2: DTS Audio, Italian, 768 kbps, 5.1 / 48 kHz / 768 kbps / 24-bit
Аудио №3: DTS Audio, Russian, 768 kbps, 5.1 / 48 kHz / 768 kbps / 24-bit Профессиональный (полное дублирование)
Аудио №4: Dolby Digital Audio, Czech, 448 kbps, 5.1 / 48 kHz / 448 kbps
Аудио №5: Dolby Digital Audio, Turkish, 448 kbps, 5.1 / 48 kHz / 448 kbps
Аудио №6: Dolby Digital Audio, Slovak, 448 kbps, 5.1 / 48 kHz / 448 kbps
Аудио №7: Dolby Digital Audio, English, 224 kbps, 2.0 / 48 kHz / 224 kbps
Аудио №8: Dolby Digital Audio, English, 224 kbps, 2.0 / 48 kHz / 224 kbps

BDInfo

DISC INFO:
Disc Size: 45.626.132.210 bytes
Protection: AACS
BD-Java: Yes
BDInfo: 0.5.6
PLAYLIST REPORT:
Name: 00800.MPLS
Length: 2:16:10 (h:m:s)
Size: 42.529.935.360 bytes
Total Bitrate: 41,64 Mbps
Angle 1 Length: 0:02:00 (h:m:s) / 2:16:10 (h:m:s)
Angle 1 Size: 556.849.152 bytes / 42.483.191.808 bytes
Angle 1 Total Bitrate: 37,05 Mbps / 41,59 Mbps
Angle 2 Length: 0:02:00 (h:m:s) / 2:16:10 (h:m:s)
Angle 2 Size: 561.752.064 bytes / 42.488.094.720 bytes
Angle 2 Total Bitrate: 37,37 Mbps / 41,60 Mbps
Angle 3 Length: 0:02:00 (h:m:s) / 2:16:10 (h:m:s)
Angle 3 Size: 546.097.152 bytes / 42.472.439.808 bytes
Angle 3 Total Bitrate: 36,33 Mbps / 41,58 Mbps
Angle 4 Length: 0:02:00 (h:m:s) / 2:16:10 (h:m:s)
Angle 4 Size: 554.545.152 bytes / 42.480.887.808 bytes
Angle 4 Total Bitrate: 36,89 Mbps / 41,59 Mbps
All Angles Length: 2:24:11 (h:m:s)
All Angles Size: 44.749.178.880 bytes
All Angles Bitrate: 41,38 Mbps
VIDEO:
Codec Bitrate Description
----- ------- -----------
MPEG-4 AVC Video 30405 kbps 1080p / 23,976 fps / 16:9 / High Profile 4.1
MPEG-4 AVC Video (1) 386 (26231) kbps 1080p / 23,976 fps / 16:9 / High Profile 4.1
MPEG-4 AVC Video (2) 391 (26543) kbps 1080p / 23,976 fps / 16:9 / High Profile 4.1
MPEG-4 AVC Video (3) 376 (25545) kbps 1080p / 23,976 fps / 16:9 / High Profile 4.1
MPEG-4 AVC Video (4) 384 (26083) kbps 1080p / 23,976 fps / 16:9 / High Profile 4.1
AUDIO:
Codec Language Bitrate Description
----- -------- ------- -----------
DTS-HD Master Audio English 4815 kbps 6.1 / 48 kHz / 4815 kbps / 24-bit (DTS Core: 6.1-ES / 48 kHz / 1509 kbps / 24-bit)
DTS Audio Italian 768 kbps 5.1 / 48 kHz / 768 kbps / 24-bit
DTS Audio Russian 768 kbps 5.1 / 48 kHz / 768 kbps / 24-bit
Dolby Digital Audio Czech 448 kbps 5.1 / 48 kHz / 448 kbps
Dolby Digital Audio Slovak 448 kbps 5.1 / 48 kHz / 448 kbps
Dolby Digital Audio Turkish 448 kbps 5.1 / 48 kHz / 448 kbps
Dolby Digital Audio English 224 kbps 2.0 / 48 kHz / 224 kbps
Dolby Digital Audio English 224 kbps 2.0 / 48 kHz / 224 kbps
SUBTITLES:
Codec Language Bitrate Description
----- -------- ------- -----------
Presentation Graphics English 45,181 kbps
Presentation Graphics English 0,369 kbps
Presentation Graphics English 2,426 kbps
Presentation Graphics English 2,466 kbps
Presentation Graphics Bulgarian 42,540 kbps
Presentation Graphics Croatian 37,165 kbps
Presentation Graphics Czech 42,049 kbps
Presentation Graphics Italian 44,170 kbps
Presentation Graphics Italian 100,379 kbps
Presentation Graphics Italian 80,212 kbps
Presentation Graphics Romanian 49,513 kbps
Presentation Graphics Russian 51,355 kbps
Presentation Graphics Russian 123,938 kbps
Presentation Graphics Russian 93,815 kbps
Presentation Graphics Slovak 0,828 kbps
Presentation Graphics Slovenian 44,456 kbps
Presentation Graphics Turkish 46,251 kbps
FILES:
Name Time In Length Size Total Bitrate
---- ------- ------ ---- -------------
00882.M2TS 0:00:00.000 0:02:00.245 603.592.704 40.157
00884.M2TS (1) 0:00:00.000 0:02:00.245 556.849.152 37.048
00885.M2TS (2) 0:00:00.000 0:02:00.245 561.752.064 37.374
00886.M2TS (3) 0:00:00.000 0:02:00.245 546.097.152 36.332
00887.M2TS (4) 0:00:00.000 0:02:00.245 554.545.152 36.894
00800.M2TS 0:02:00.245 2:14:10.667 41.926.342.656 41.662

Скриншоты

     

Звездные войны&#58; Эпизод 2 - Атака клонов / Star Wars&#58; Episode II - Attack of the Clones


Год выпуска: 2002
Продолжительность: 02:22:27
Перевод: Профессиональный (полное дублирование)
Субтитры: English, Italian, Russian, Bulgarian, Croatian, Czech, Estonian, Romanian, Turkish, Latvian, Lithuanian, Slovak, Slovenian
В ролях: Юэн МакГрегор, Натали Портман, Хейден Кристенсен, Кристофер Ли, Сэмюэл Л. Джексон, Фрэнк Оз, Иэн МакДайармид, Пернилла Аугуст, Темуэра Моррисон, Дэниэл Логан
Описание: Действие разворачивается через 10 лет после событий, описанных в первом эпизоде знаменитой саги. Республика все глубже погружается в пучину противоречий и хаоса. Движение сепаратистов, представленное сотнями планет и могущественным альянсом корпораций, грозит стать новой угрозой для Галактики, с которой не смогут справиться даже джедаи.
Назревающий конфликт, заранее спланированный могущественными, но пока еще не разоблаченными силами, ведет к началу Клонических войн и к закату республики. Чтобы противостоять угрозе вселенских масштабов, Верховный канцлер Палпатин добивается консолидации власти в республике в своих руках и отдает приказ о создании республиканской армии для поддержки малочисленной группы джедаев в их борьбе с превосходящим противником...
На диске:
• Аудиокомментарии;
• Просмотр сцен под разным углом обзора.
Качество: Blu-Ray
Формат: BDMV
Видео: MPEG-4 AVC Video, 28864 kbps, 1080p / 23,976 fps / 16:9 / High Profile 4.1
Аудио №1: DTS-HD Master Audio, English, 4533 kbps, 6.1 / 48 kHz / 4533 kbps / 24-bit (DTS Core: 6.1-ES / 48 kHz / 1509 kbps / 24-bit)
Аудио №2: DTS Audio, Italian, 768 kbps, 5.1 / 48 kHz / 768 kbps / 24-bit
Аудио №3: DTS Audio, Russian, 768 kbps, 5.1 / 48 kHz / 768 kbps / 24-bit Профессиональный (полное дублирование)
Аудио №4: Dolby Digital Audio, Czech, 448 kbps, 5.1 / 48 kHz / 448 kbps
Аудио №5: Dolby Digital Audio, Turkish, 448 kbps, 5.1 / 48 kHz / 448 kbps
Аудио №6: Dolby Digital Audio, Slovak, 448 kbps, 5.1 / 48 kHz / 448 kbps
Аудио №7: Dolby Digital Audio, English, 224 kbps, 2.0 / 48 kHz / 224 kbps
Аудио №8: Dolby Digital Audio, English, 224 kbps, 2.0 / 48 kHz / 224 kbps

BDInfo

DISC INFO:
Disc Size: 46.591.710.109 bytes
Protection: AACS
BD-Java: Yes
BDInfo: 0.5.6
PLAYLIST REPORT:
Name: 00800.MPLS
Length: 2:22:27 (h:m:s)
Size: 42.471.622.656 bytes
Total Bitrate: 39,75 Mbps
Angle 1 Length: 0:02:16 (h:m:s) / 2:22:27 (h:m:s)
Angle 1 Size: 649.107.456 bytes / 42.466.805.760 bytes
Angle 1 Total Bitrate: 38,03 Mbps / 39,74 Mbps
Angle 2 Length: 0:02:16 (h:m:s) / 2:22:27 (h:m:s)
Angle 2 Size: 648.953.856 bytes / 42.466.652.160 bytes
Angle 2 Total Bitrate: 38,02 Mbps / 39,74 Mbps
Angle 3 Length: 0:02:16 (h:m:s) / 2:22:27 (h:m:s)
Angle 3 Size: 648.904.704 bytes / 42.466.603.008 bytes
Angle 3 Total Bitrate: 38,02 Mbps / 39,74 Mbps
Angle 4 Length: 0:02:16 (h:m:s) / 2:22:27 (h:m:s)
Angle 4 Size: 648.744.960 bytes / 42.466.443.264 bytes
Angle 4 Total Bitrate: 38,01 Mbps / 39,74 Mbps
Angle 5 Length: 0:02:16 (h:m:s) / 2:22:27 (h:m:s)
Angle 5 Size: 649.248.768 bytes / 42.466.947.072 bytes
Angle 5 Total Bitrate: 38,04 Mbps / 39,75 Mbps
All Angles Length: 2:33:50 (h:m:s)
All Angles Size: 45.716.582.400 bytes
All Angles Bitrate: 39,62 Mbps
VIDEO:
Codec Bitrate Description
----- ------- -----------
MPEG-4 AVC Video 28864 kbps 1080p / 23,976 fps / 16:9 / High Profile 4.1
MPEG-4 AVC Video (1) 442 (27676) kbps 1080p / 23,976 fps / 16:9 / High Profile 4.1
MPEG-4 AVC Video (2) 442 (27667) kbps 1080p / 23,976 fps / 16:9 / High Profile 4.1
MPEG-4 AVC Video (3) 442 (27665) kbps 1080p / 23,976 fps / 16:9 / High Profile 4.1
MPEG-4 AVC Video (4) 442 (27656) kbps 1080p / 23,976 fps / 16:9 / High Profile 4.1
MPEG-4 AVC Video (5) 442 (27684) kbps 1080p / 23,976 fps / 16:9 / High Profile 4.1
AUDIO:
Codec Language Bitrate Description
----- -------- ------- -----------
DTS-HD Master Audio English 4533 kbps 6.1 / 48 kHz / 4533 kbps / 24-bit (DTS Core: 6.1-ES / 48 kHz / 1509 kbps / 24-bit)
DTS Audio Italian 768 kbps 5.1 / 48 kHz / 768 kbps / 24-bit
DTS Audio Russian 768 kbps 5.1 / 48 kHz / 768 kbps / 24-bit
Dolby Digital Audio Czech 448 kbps 5.1 / 48 kHz / 448 kbps
Dolby Digital Audio Slovak 448 kbps 5.1 / 48 kHz / 448 kbps
Dolby Digital Audio Turkish 448 kbps 5.1 / 48 kHz / 448 kbps
Dolby Digital Audio English 224 kbps 2.0 / 48 kHz / 224 kbps
Dolby Digital Audio English 224 kbps 2.0 / 48 kHz / 224 kbps
SUBTITLES:
Codec Language Bitrate Description
----- -------- ------- -----------
Presentation Graphics English 36,910 kbps
Presentation Graphics English 0,249 kbps
Presentation Graphics English 2,438 kbps
Presentation Graphics English 2,040 kbps
Presentation Graphics Bulgarian 36,626 kbps
Presentation Graphics Croatian 31,138 kbps
Presentation Graphics Czech 34,088 kbps
Presentation Graphics Estonian 38,247 kbps
Presentation Graphics Italian 37,649 kbps
Presentation Graphics Italian 93,106 kbps
Presentation Graphics Italian 82,239 kbps
Presentation Graphics Latvian 34,905 kbps
Presentation Graphics Lithuanian 37,684 kbps
Presentation Graphics Romanian 33,120 kbps
Presentation Graphics Russian 43,561 kbps
Presentation Graphics Russian 109,467 kbps
Presentation Graphics Russian 96,341 kbps
Presentation Graphics Slovak 0,538 kbps
Presentation Graphics Slovenian 32,115 kbps
Presentation Graphics Turkish 34,193 kbps
FILES:
Name Time In Length Size Total Bitrate
---- ------- ------ ---- -------------
00882.M2TS 0:00:00.000 0:02:16.553 653.924.352 38.310
00883.M2TS (1) 0:00:00.000 0:02:16.553 649.107.456 38.028
00884.M2TS (2) 0:00:00.000 0:02:16.553 648.953.856 38.019
00885.M2TS (3) 0:00:00.000 0:02:16.553 648.904.704 38.016
00886.M2TS (4) 0:00:00.000 0:02:16.553 648.744.960 38.007
00887.M2TS (5) 0:00:00.000 0:02:16.553 649.248.768 38.036
00800.M2TS 0:02:16.553 2:20:11.319 41.817.698.304 39.773

Скриншоты

     

Звездные войны&#58; Эпизод 3 - Месть Ситхов / Star Wars&#58; Episode III - Revenge of the Sith


Год выпуска: 2005
Продолжительность: 02:20:05
Перевод: Профессиональный (полное дублирование)
Субтитры: English, Italian, Russian, Bulgarian, Croatian, Czech, Estonian, Romanian, Turkish, Latvian, Lithuanian, Slovenian
В ролях: Юэн МакГрегор, Натали Портман, Хейден Кристенсен, Иэн МакДайармид, Сэмюэл Л. Джексон, Джимми Смитс, Фрэнк Оз, Энтони Дэниелс, Кристофер Ли, Киша Касл-Хьюз
Описание: Со времен, описанных во втором эпизоде, прошло 3 года. Энакин окончательно встает на темную сторону силы и превращается в Дарта Вейдера. Республика гибнет под ударами крепнущей Империи, Джедаи теряют контроль над галактикой, а Падме готовится к тому, чтобы стать матерью. Все эти события будут разворачиваться на фоне грандиозной битвы, знаменующей финал Клонических войн…
На диске:
• Аудиокомментарии;
• Просмотр сцен под разным углом обзора.
Качество: Blu-Ray
Формат: BDMV
Видео: MPEG-4 AVC Video, 29679 kbps, 1080p / 23,976 fps / 16:9 / High Profile 4.1
Аудио №1: DTS-HD Master Audio, English, 4403 kbps, 6.1 / 48 kHz / 4403 kbps / 24-bit (DTS Core: 6.1-ES / 48 kHz / 1509 kbps / 24-bit)
Аудио №2: DTS Audio, Italian, 768 kbps, 5.1 / 48 kHz / 768 kbps / 24-bit
Аудио №3: DTS Audio, Russian, 768 kbps, 5.1 / 48 kHz / 768 kbps / 24-bit Профессиональный (полное дублирование)
Аудио №4: Dolby Digital Audio, Czech, 448 kbps, 5.1 / 48 kHz / 448 kbps
Аудио №5: Dolby Digital Audio, Turkish, 448 kbps, 5.1 / 48 kHz / 448 kbps
Аудио №6: Dolby Digital Audio, Slovak, 448 kbps, 5.1 / 48 kHz / 448 kbps
Аудио №7: Dolby Digital Audio, English, 224 kbps, 2.0 / 48 kHz / 224 kbps
Аудио №8: Dolby Digital Audio, English, 224 kbps, 2.0 / 48 kHz / 224 kbps

Скриншоты

     

BDInfo

DISC INFO:
Disc Size: 46.536.875.678 bytes
Protection: AACS
BD-Java: Yes
BDInfo: 0.5.6
PLAYLIST REPORT:
Name: 00800.MPLS
Length: 2:20:05 (h:m:s)
Size: 42.515.748.864 bytes
Total Bitrate: 40,46 Mbps
Angle 1 Length: 0:02:03 (h:m:s) / 2:20:05 (h:m:s)
Angle 1 Size: 629.274.624 bytes / 42.534.629.376 bytes
Angle 1 Total Bitrate: 40,72 Mbps / 40,48 Mbps
Angle 2 Length: 0:02:03 (h:m:s) / 2:20:05 (h:m:s)
Angle 2 Size: 629.250.048 bytes / 42.534.604.800 bytes
Angle 2 Total Bitrate: 40,72 Mbps / 40,48 Mbps
Angle 3 Length: 0:02:03 (h:m:s) / 2:20:05 (h:m:s)
Angle 3 Size: 629.323.776 bytes / 42.534.678.528 bytes
Angle 3 Total Bitrate: 40,73 Mbps / 40,48 Mbps
Angle 4 Length: 0:02:03 (h:m:s) / 2:20:05 (h:m:s)
Angle 4 Size: 629.268.480 bytes / 42.534.623.232 bytes
Angle 4 Total Bitrate: 40,72 Mbps / 40,48 Mbps
Angle 5 Length: 0:02:03 (h:m:s) / 2:20:05 (h:m:s)
Angle 5 Size: 629.268.480 bytes / 42.534.623.232 bytes
Angle 5 Total Bitrate: 40,72 Mbps / 40,48 Mbps
All Angles Length: 2:30:23 (h:m:s)
All Angles Size: 45.662.134.272 bytes
All Angles Bitrate: 40,48 Mbps
VIDEO:
Codec Bitrate Description
----- ------- -----------
MPEG-4 AVC Video 29679 kbps 1080p / 23,976 fps / 16:9 / High Profile 4.1
MPEG-4 AVC Video (1) 440 (29888) kbps 1080p / 23,976 fps / 16:9 / High Profile 4.1
MPEG-4 AVC Video (2) 440 (29887) kbps 1080p / 23,976 fps / 16:9 / High Profile 4.1
MPEG-4 AVC Video (3) 440 (29892) kbps 1080p / 23,976 fps / 16:9 / High Profile 4.1
MPEG-4 AVC Video (4) 440 (29888) kbps 1080p / 23,976 fps / 16:9 / High Profile 4.1
MPEG-4 AVC Video (5) 440 (29888) kbps 1080p / 23,976 fps / 16:9 / High Profile 4.1
AUDIO:
Codec Language Bitrate Description
----- -------- ------- -----------
DTS-HD Master Audio English 4403 kbps 6.1 / 48 kHz / 4403 kbps / 24-bit (DTS Core: 6.1-ES / 48 kHz / 1509 kbps / 24-bit)
DTS Audio Italian 768 kbps 5.1 / 48 kHz / 768 kbps / 24-bit
DTS Audio Russian 768 kbps 5.1 / 48 kHz / 768 kbps / 24-bit
Dolby Digital Audio Czech 448 kbps 5.1 / 48 kHz / 448 kbps
Dolby Digital Audio Slovak 448 kbps 5.1 / 48 kHz / 448 kbps
Dolby Digital Audio Turkish 448 kbps 5.1 / 48 kHz / 448 kbps
Dolby Digital Audio English 224 kbps 2.0 / 48 kHz / 224 kbps
Dolby Digital Audio English 224 kbps 2.0 / 48 kHz / 224 kbps
SUBTITLES:
Codec Language Bitrate Description
----- -------- ------- -----------
Presentation Graphics English 34,338 kbps
Presentation Graphics English 3,316 kbps
Presentation Graphics English 2,733 kbps
Presentation Graphics Bulgarian 34,583 kbps
Presentation Graphics Croatian 35,487 kbps
Presentation Graphics Czech 33,745 kbps
Presentation Graphics Estonian 36,084 kbps
Presentation Graphics Italian 35,156 kbps
Presentation Graphics Italian 96,719 kbps
Presentation Graphics Italian 80,071 kbps
Presentation Graphics Latvian 32,374 kbps
Presentation Graphics Lithuanian 33,656 kbps
Presentation Graphics Romanian 36,275 kbps
Presentation Graphics Russian 35,112 kbps
Presentation Graphics Russian 122,681 kbps
Presentation Graphics Russian 95,369 kbps
Presentation Graphics Slovenian 31,914 kbps
Presentation Graphics Turkish 34,943 kbps
FILES:
Name Time In Length Size Total Bitrate
---- ------- ------ ---- -------------
00300.M2TS 0:00:00.000 0:02:03.623 610.394.112 39.500
00882.M2TS (1) 0:00:00.000 0:02:03.623 629.274.624 40.722
00883.M2TS (2) 0:00:00.000 0:02:03.623 629.250.048 40.720
00884.M2TS (3) 0:00:00.000 0:02:03.623 629.323.776 40.725
00885.M2TS (4) 0:00:00.000 0:02:03.623 629.268.480 40.722
00886.M2TS (5) 0:00:00.000 0:02:03.623 629.268.480 40.722
00301.M2TS 0:02:03.623 2:18:02.232 41.905.354.752 40.477

Звездные войны&#58; Эпизод 4 - Новая надежда / Star Wars&#58; Episode IV - A New Hope


Год выпуска: 1977
Продолжительность: 02:04:44
Перевод: Профессиональный (полное дублирование)
Субтитры: English, Italian, Russian, Bulgarian, Croatian, Czech, Romanian, Turkish, Slovenian
В ролях: Марк Хэмилл, Харрисон Форд, Кэрри Фишер, Питер Кашинг, Алек Гиннесс, Энтони Дэниелс, Кенни Бейкер, Питер Мейхью, Дэвид Праус, Джеймс Эрл Джонс
Описание: Татуин. Планета-пустыня. Уже постаревший рыцарь Джедай Оби Ван Кеноби спасает молодого Люка Скайуокера, когда тот пытается отыскать пропавшего дроида. С этого момента Люк осознает свое истинное назначение: он один из рыцарей Джедай. В то время как гражданская война охватила галактику, а войска повстанцев ведут бои против сил злого Императора, к Люку и Оби Вану присоединяется отчаянный пилот-наемник Хан Соло, и в сопровождении двух дроидов, R2D2 и C-3PO, этот необычный отряд отправляется на поиски предводителя повстанцев — принцессы Леи. Героям предстоит отчаянная схватка с устрашающим Дартом Вейдером — правой рукой Императора и его секретным оружием — «Звездой Смерти»...
Качество: Blu-Ray
Формат: BDMV
Видео: MPEG-4 AVC Video, 33502 kbps, 1080p / 23,976 fps / 16:9 / High Profile 4.1
Аудио №1: DTS-HD Master Audio, English, 4069 kbps, 6.1 / 48 kHz / 4069 kbps / 24-bit (DTS Core: 6.1-ES / 48 kHz / 1509 kbps / 24-bit)
Аудио №2: DTS Audio, Italian, 768 kbps, 5.1 / 48 kHz / 768 kbps / 24-bit
Аудио №3: DTS Audio, Russian, 768 kbps, 5.1 / 48 kHz / 768 kbps / 24-bit Профессиональный (полное дублирование)
Аудио №4: Dolby Digital Audio, Czech, 448 kbps, 5.1 / 48 kHz / 448 kbps
Аудио №5: Dolby Digital Audio, English, 224 kbps, 2.0 / 48 kHz / 224 kbps
Аудио №6: Dolby Digital Audio, English, 224 kbps, 2.0 / 48 kHz / 224 kbps

BDInfo

DISC INFO:
Disc Size: 41.833.722.296 bytes
Protection: AACS
BD-Java: Yes
BDInfo: 0.5.6
PLAYLIST REPORT:
Name: 00800.MPLS
Length: 2:04:44 (h:m:s)
Size: 40.380.635.136 bytes
Total Bitrate: 43,16 Mbps
Angle 1 Length: 0:02:26 (h:m:s) / 2:04:44 (h:m:s)
Angle 1 Size: 759.558.144 bytes / 40.352.919.552 bytes
Angle 1 Total Bitrate: 41,37 Mbps / 43,13 Mbps
All Angles Length: 2:07:11 (h:m:s)
All Angles Size: 41.140.193.280 bytes
All Angles Bitrate: 43,13 Mbps
VIDEO:
Codec Bitrate Description
----- ------- -----------
MPEG-4 AVC Video 33502 kbps 1080p / 23,976 fps / 16:9 / High Profile 4.1
MPEG-4 AVC Video (1) 624 (31800) kbps 1080p / 23,976 fps / 16:9 / High Profile 4.1
AUDIO:
Codec Language Bitrate Description
----- -------- ------- -----------
DTS-HD Master Audio English 4069 kbps 6.1 / 48 kHz / 4069 kbps / 24-bit (DTS Core: 6.1-ES / 48 kHz / 1509 kbps / 24-bit)
DTS Audio Italian 768 kbps 5.1 / 48 kHz / 768 kbps / 24-bit
DTS Audio Russian 768 kbps 5.1 / 48 kHz / 768 kbps / 24-bit
Dolby Digital Audio Czech 448 kbps 5.1 / 48 kHz / 448 kbps
Dolby Digital Audio English 224 kbps 2.0 / 48 kHz / 224 kbps
Dolby Digital Audio English 224 kbps 2.0 / 48 kHz / 224 kbps
SUBTITLES:
Codec Language Bitrate Description
----- -------- ------- -----------
Presentation Graphics English 52,957 kbps
Presentation Graphics English 0,487 kbps
Presentation Graphics English 1,227 kbps
Presentation Graphics English 2,232 kbps
Presentation Graphics Bulgarian 45,067 kbps
Presentation Graphics Croatian 41,020 kbps
Presentation Graphics Czech 38,497 kbps
Presentation Graphics Italian 51,144 kbps
Presentation Graphics Italian 79,758 kbps
Presentation Graphics Italian 89,016 kbps
Presentation Graphics Romanian 57,857 kbps
Presentation Graphics Russian 60,561 kbps
Presentation Graphics Russian 99,587 kbps
Presentation Graphics Russian 111,350 kbps
Presentation Graphics Slovenian 48,251 kbps
Presentation Graphics Turkish 54,144 kbps
FILES:
Name Time In Length Size Total Bitrate
---- ------- ------ ---- -------------
00300.M2TS 0:00:00.000 0:02:26.896 787.273.728 42.875
00302.M2TS (1) 0:00:00.000 0:02:26.896 759.558.144 41.366
00301.M2TS 0:02:26.896 2:02:17.830 39.593.361.408 43.166

Скриншоты&#58;

     

Звездные войны&#58; Эпизод 5 - Империя наносит ответный удар / Star Wars&#58; Episode V - The Empire Strikes Back


Год выпуска: 1980
Продолжительность: 02:07:21
Перевод: Профессиональный (полное дублирование)
Субтитры: English, Italian, Russian, Croatian, Bulgarian, Czech, Romanian, Turkish, Slovenian
В ролях: Марк Хэмилл, Харрисон Форд, Кэрри Фишер, Билли Ди Уильямс, Энтони Дэниелс, Дэвид Праус, Питер Мейхью, Кенни Бейкер, Фрэнк Оз, Алек Гиннесс
Описание: Борьба за Галактику обостряется в пятом эпизоде космической саги. Войска Императора начинают массированную атаку на повстанцев и их союзников.
Хан Соло и принцесса Лейя укрываются в Заоблачном Городе, в котором их и захватывает Дарт Вейдер, в то время как Люк Скайуокер находится на таинственной планете джунглей Дагобар. Там Мастер — джедай Йода обучает молодого рыцаря навыкам обретения Силы. Люк даже не предполагает, как скоро ему придется воспользоваться знаниями старого Мастера: впереди битва с превосходящими силами Императора и смертельный поединок с Дартом Вейдером...
Качество: Blu-Ray
Формат: BDMV
Видео: MPEG-4 AVC Video, 32330 kbps, 1080p / 23,976 fps / 16:9 / High Profile 4.1
Аудио №1: DTS-HD Master Audio, English, 4564 kbps, 6.1 / 48 kHz / 4564 kbps / 24-bit (DTS Core: 6.1-ES / 48 kHz / 1509 kbps / 24-bit)
Аудио №2: DTS Audio, Italian, 768 kbps, 5.1 / 48 kHz / 768 kbps / 24-bit
Аудио №3: DTS Audio, Russian, 768 kbps, 5.1 / 48 kHz / 768 kbps / 24-bit Профессиональный (полное дублирование)
Аудио №4: Dolby Digital Audio, Czech, 448 kbps, 5.1 / 48 kHz / 448 kbps
Аудио №5: Dolby Digital Audio, English, 224 kbps, 2.0 / 48 kHz / 224 kbps
Аудио №6: Dolby Digital Audio, English, 224 kbps, 2.0 / 48 kHz / 224 kbps

BDInfo

DISC INFO:
Disc Size: 41.872.748.461 bytes
Protection: AACS
BD-Java: Yes
BDInfo: 0.5.6
PLAYLIST REPORT:
Name: 00800.MPLS
Length: 2:07:21 (h:m:s)
Size: 40.443.942.912 bytes
Total Bitrate: 42,34 Mbps
Angle 1 Length: 0:02:26 (h:m:s) / 2:07:21 (h:m:s)
Angle 1 Size: 728.881.152 bytes / 40.385.931.264 bytes
Angle 1 Total Bitrate: 39,83 Mbps / 42,28 Mbps
All Angles Length: 2:09:47 (h:m:s)
All Angles Size: 41.172.824.064 bytes
All Angles Bitrate: 42,29 Mbps
VIDEO:
Codec Bitrate Description
----- ------- -----------
MPEG-4 AVC Video 32330 kbps 1080p / 23,976 fps / 16:9 / High Profile 4.1
MPEG-4 AVC Video (1) 575 (29993) kbps 1080p / 23,976 fps / 16:9 / High Profile 4.1
AUDIO:
Codec Language Bitrate Description
----- -------- ------- -----------
DTS-HD Master Audio English 4564 kbps 6.1 / 48 kHz / 4564 kbps / 24-bit (DTS Core: 6.1-ES / 48 kHz / 1509 kbps / 24-bit)
DTS Audio Italian 768 kbps 5.1 / 48 kHz / 768 kbps / 24-bit
DTS Audio Russian 768 kbps 5.1 / 48 kHz / 768 kbps / 24-bit
Dolby Digital Audio Czech 448 kbps 5.1 / 48 kHz / 448 kbps
Dolby Digital Audio English 224 kbps 2.0 / 48 kHz / 224 kbps
Dolby Digital Audio English 224 kbps 2.0 / 48 kHz / 224 kbps
SUBTITLES:
Codec Language Bitrate Description
----- -------- ------- -----------
Presentation Graphics English 38,960 kbps
Presentation Graphics English 1,918 kbps
Presentation Graphics English 1,685 kbps
Presentation Graphics Bulgarian 34,281 kbps
Presentation Graphics Croatian 32,215 kbps
Presentation Graphics Czech 31,987 kbps
Presentation Graphics Italian 38,107 kbps
Presentation Graphics Italian 82,127 kbps
Presentation Graphics Italian 84,825 kbps
Presentation Graphics Romanian 43,401 kbps
Presentation Graphics Russian 45,895 kbps
Presentation Graphics Russian 107,808 kbps
Presentation Graphics Russian 102,964 kbps
Presentation Graphics Slovenian 38,997 kbps
Presentation Graphics Turkish 41,316 kbps
FILES:
Name Time In Length Size Total Bitrate
---- ------- ------ ---- -------------
00500.M2TS 0:00:00.000 0:02:26.396 786.892.800 43.001
00502.M2TS (1) 0:00:00.000 0:02:26.396 728.881.152 39.831
00501.M2TS 0:02:26.396 2:04:55.154 39.657.050.112 42.328

Скриншоты&#58;

     

Звездные войны&#58; Эпизод 6 - Возвращение Джедая / Star Wars&#58; Episode VI - Return of the Jedi


Год выпуска: 1983
Продолжительность: 02:14:47
Перевод: Профессиональный (полное дублирование)
Субтитры: English, Italian, Russian, Bulgarian, Croatian, Czech, Romanian, Turkish, Slovenian
В ролях: Марк Хэмилл, Харрисон Форд, Кэрри Фишер, Билли Ди Уильямс, Энтони Дэниелс, Питер Мейхью, Себастьян Шоу, Иэн МакДайармид, Фрэнк Оз, Джеймс Эрл Джонс
Описание: В заключительном шестом эпизоде «Звездных войн» Дарт Вейдер создает вторую «Звезду Смерти». Он объединяет все силы зла, чтобы с помощью этого смертоносного оружия нанести последний сокрушительный удар по повстанцам и их союзникам. Люк Скайуокер вместе с принцессой Лейей и верными дроидами R2D2 и C-3PO отправляется спасать своего друга Хана Соло, который попал в плен к отвратительному Джаббе Хатту — могущественному повелителю преступников.
Повстанцы высаживаются на планету Эндор, чтобы оттуда вместе с Люком и его отрядом предпринять последнюю атаку на Имперский флот, атаку, от которой зависит судьба Галактики. В этом эпизоде Люк Скайуокер и Дарт Вейдер встречаются в последний раз… ибо из поединка между отцом и сыном живым выйдет только один…
Качество: Blu-Ray
Формат: BDMV
Видео: MPEG-4 AVC Video, 30589 kbps, 1080p / 23,976 fps / 16:9 / High Profile 4.1
Аудио №1: DTS-HD Master Audio, English, 4553 kbps, 6.1 / 48 kHz / 4553 kbps / 24-bit (DTS Core: 6.1-ES / 48 kHz / 1509 kbps / 24-bit)
Аудио №2: DTS Audio, Italian, 768 kbps, 5.1 / 48 kHz / 768 kbps / 24-bit
Аудио №3: DTS Audio, Russian, 768 kbps, 5.1 / 48 kHz / 768 kbps / 24-bit Профессиональный (полное дублирование)
Аудио №4: Dolby Digital Audio, Czech, 448 kbps, 5.1 / 48 kHz / 448 kbps
Аудио №5: Dolby Digital Audio, English, 224 kbps, 2.0 / 48 kHz / 224 kbps
Аудио №6: Dolby Digital Audio, English, 224 kbps, 2.0 / 48 kHz / 224 kbps

BDInfo

DISC INFO:
Disc Size: 42.308.553.496 bytes
Protection: AACS
BD-Java: Yes
BDInfo: 0.5.6
PLAYLIST REPORT:
Name: 00800.MPLS
Length: 2:14:47 (h:m:s)
Size: 40.865.875.968 bytes
Total Bitrate: 40,42 Mbps
Angle 1 Length: 0:02:23 (h:m:s) / 2:14:47 (h:m:s)
Angle 1 Size: 714.590.208 bytes / 40.851.683.328 bytes
Angle 1 Total Bitrate: 39,84 Mbps / 40,41 Mbps
All Angles Length: 2:17:10 (h:m:s)
All Angles Size: 41.580.466.176 bytes
All Angles Bitrate: 40,41 Mbps
VIDEO:
Codec Bitrate Description
----- ------- -----------
MPEG-4 AVC Video 30589 kbps 1080p / 23,976 fps / 16:9 / High Profile 4.1
MPEG-4 AVC Video (1) 533 (30047) kbps 1080p / 23,976 fps / 16:9 / High Profile 4.1
AUDIO:
Codec Language Bitrate Description
----- -------- ------- -----------
DTS-HD Master Audio English 4553 kbps 6.1 / 48 kHz / 4553 kbps / 24-bit (DTS Core: 6.1-ES / 48 kHz / 1509 kbps / 24-bit)
DTS Audio Italian 768 kbps 5.1 / 48 kHz / 768 kbps / 24-bit
DTS Audio Russian 768 kbps 5.1 / 48 kHz / 768 kbps / 24-bit
Dolby Digital Audio Czech 448 kbps 5.1 / 48 kHz / 448 kbps
Dolby Digital Audio English 224 kbps 2.0 / 48 kHz / 224 kbps
Dolby Digital Audio English 224 kbps 2.0 / 48 kHz / 224 kbps
SUBTITLES:
Codec Language Bitrate Description
----- -------- ------- -----------
Presentation Graphics English 29,732 kbps
Presentation Graphics English 0,363 kbps
Presentation Graphics English 1,295 kbps
Presentation Graphics English 2,001 kbps
Presentation Graphics Bulgarian 28,903 kbps
Presentation Graphics Croatian 26,826 kbps
Presentation Graphics Czech 26,596 kbps
Presentation Graphics Italian 29,773 kbps
Presentation Graphics Italian 89,518 kbps
Presentation Graphics Italian 80,909 kbps
Presentation Graphics Romanian 31,247 kbps
Presentation Graphics Russian 34,922 kbps
Presentation Graphics Russian 100,830 kbps
Presentation Graphics Russian 98,410 kbps
Presentation Graphics Slovenian 30,623 kbps
Presentation Graphics Turkish 32,315 kbps
FILES:
Name Time In Length Size Total Bitrate
---- ------- ------ ---- -------------
00300.M2TS 0:00:00.000 0:02:23.476 728.782.848 40.636
00882.M2TS (1) 0:00:00.000 0:02:23.476 714.590.208 39.844
00301.M2TS 0:02:23.476 2:12:23.894 40.137.093.120 40.421

Скриншоты

     

Дополнительные материалы

Бонус-диск №1: Архивы Звездных Войн: Эпизоды I-III / Bonus Disc 1: Prequel Features
На диске:
Удаленные, расширенные и альтернативные сцены
Работа над оборудованием, макетами и костюмами
Рисунки поклонников и концептуальное искусство
Дополнительные интервью с командой актеров и со съемочной группой
Экскурсия по архивам Lucasfilm
(без локализации)
Бонус-диск №2: Архивы Звездных Войн: Эпизоды IV-VI / Bonus Disc 2: Original Trilogy Features
На диске:
Удаленные, расширенные и альтернативные сцены
Работа над оборудованием, макетами и костюмами
Рисунки поклонников и концептуальное искусство
Дополнительные интервью с командой актеров и со съемочной группой
(без локализации)
Бонус-диск №3: Документальные фильмы / Bonus Disc 3: The Star Wars Documentaries
На диске:
Звездные Воины (2007, 84 мин.) - Несколько поклонников Звездных Войн решили сами стать героями своего любимого фильма! 501-ый Легион, глобальная организация энтузиастов Звездных Войн, продвигает звездную Сагу через благотворительность и добровольную работу по сбору средств и с помощью организации специальных мероприятиях по всему миру.
Разговор с Создателями: Империя Наносит Ответный Удар 30 Лет Спустя (2010, 25 мин.) - Джордж Лукас, Ирвин Кершнер, Лоуренс Касдан и Джон Уильямс рассказывают о создании Эпизода Империя Наносит Ответный Удар в глубоком ретроспективном фильме, который был создан к 30-ой годовщине этого эпизода. Создатели обсуждают и предаются воспоминаниям об одном из самых любимых фильмов Саги.
Мистификации Звездных Войн (2011, 91 мин.) - Наслаждайтесь веселой коллекцией пародий и мистификаций на Звездные Войны, которые собирались многие годы! Коллекция включает скандальные эпизоды из Гриффины, Симпсоны, Как Я Встретил Вашу Маму и многое другое.
Создание Звездных Войн (1977, 49 мин.) - Узнайте, как создавалась оригинальная трилогия Звездные Войны. Включены интервью с Джорджем Лукасом, также вы увидите Марка Хэмилла, Харрисона Форда и Кэрри Фишер.
Империя Наносит Ответный Удар: Спецэффекты (1980, 48 мин.) - Этот фильм откроет вам секреты создания фильмов о далекой, далекой галактике. Ведущий Марк Хэмилл расскажет вам о потрясающих спецэффектах, которые претворили видение Джорджа Лукаса о том, как должен выглядеть фильм, в реальность!
Классические Существа: Возвращение Джедая (1983, 48 мин.) - Окажитесь за кулисами, узнайте, как создавались костюмы персонажей. Истории о съемках чередуется с винтажными клипами о монстрах, которые были взяты за основу для дальнейшего создания классических обитателей вселенной Звездных Войн. Ведущие и рассказчики - Кэрри Фишер и Билли Ди Вильямс.
Анатомия Рососпин (1997, 26 мин.) - Узнайте, как некоторые спецэффекты Звездных Войн стали еще более специальными спустя два десятилетия! Джордж Лукас расскажет и покажет, как его команда трансформировала оригинальных рососпинников из неподвижных резиновых кукол (в оригинальном фильме 1977 года) в почти что живых, дышащих созданий в обновленном фильме 1997 года Звездные Войны Специальное Издание.
Техника Звездных Войн (2007, 46 мин.) - Исследуйте технические аспекты транспортных средств, оружия и технических устройств Звездных Войн вместе с ведущими учеными в области физики, протезирования, лазеров, инжиниринга и астрономии. Посмотрев этот фильм, вы поймете, какие именно научные аксиомы определяют правдоподобность Звездных Войн.
Other forum [Profile] [PM]
Similar theme
Forum Topic Author Torrent Replies Last Post
./templates/default/images/folder_dl.gif Развлекательные телепередачи и шоу, приколы и юмор Две звезды. Большой Новогодний концерт (2013) SATRip Omen
0 | 1

0 | 617

0

2013-01-28 04:33
Omen Latest
./templates/default/images/folder_dl.gif Развлекательные телепередачи и шоу, приколы и юмор Благотворительный гала-концерт "Звезды - детям" [26.12.12] (2012) IPTVRemux Omen
0 | 1

0 | 527

0

2013-01-28 04:33
Omen Latest
./templates/default/images/folder_dl.gif Зарубежное кино Изгой-один: Звёздные войны. Истории / Rogue One: A Star Wars Story (Гарет Эдвардс) [2016 г., фантастика, боевик, приключения, BDRip 1080p] DUB | Чистый звук Theseus
1 | 0

0 | 7973

8

2017-03-22 11:05
Theseus Latest
Display posts from previous:    
Reply to topic

The time now is: Today 10:37

All times are GMT + 3 Hours



You cannot post new topics in this forum
You cannot reply to topics in this forum
You cannot edit your posts in this forum
You cannot delete your posts in this forum
You cannot vote in polls in this forum
You cannot attach files in this forum
You cannot download files in this forum