Today is a free download without charge Download

Прощай, моя королева / Les adieux a la reine / Les adieux à la reine / Farewell, My Queen ( Бенуа Жако / Benoît Jacquot ) (2012, Драма, Исторический ) DVD5

Reply to topic
 
Author
Message

Витек1 ®

Gender:

Longevity: 8 years 3 months

Posts: 451

Location: Житомир

Торрент-статистика

Post 06-May-2013 10:48

[Quote]

Прощай, моя королева / Les adieux à la reine - Русское название: Прощай, моя королева
Оригинальное название: Les adieux à la reine / также известен как Farewell My Queen /
Год выпуска: 2012
Производство: Франция, Испания, GMT Productions, Les Films du Lendemain
Жанр: Драма, Исторический
Перевод: Многоголосый закадровый, профессиональный [Лицензия]
Субтитры: Отсутствуют
Дата мировой премьеры: 9 февраля 2012
Дата российской премьеры: 16 августа 2012, «Top Film Distribution»
Дата выхода DVD релиза: 27 сентября 2012, «Новый Диск», «New Dream media»
Режиссер: Бенуа Жако / Benoît Jacquot
Продюсер: Жан-Пьер Герен, Кристина Ларсен, Педро Уриоль
Актеры: Дайан Крюгер, Леа Сейду, Виржини Ледуайен, Ксавье Бовуа, Ноэми Львовски, Мишель Робен, Жюли-Мари Парментье, Лолита Шамма, Владимир Консиньи, Доминик Реймон
Описание фильма:
14 июля 1789 года толпы восставших взяли Бастилию, но блестящий Версаль еще пытался отстоять свое королевское великолепие на пути урагана…
Экранизация одноименного романа Шанталь Тома, написанного в форме воспоминаний Сидони Лаборде — придворной чтицы Марии-Антуанетты о 14, 15 и 16 июля 1789 года. О тех днях, когда была разрушена Бастилия и учреждена Национальная гвардия, когда началась кровавая революция и залы роскошного дворца опустели, когда свита и слуги оставили свою Королеву. Спустя 21 год, уже в Вене, Агата Сидони Лаборде оглядывается назад и вспоминает…

Продолжительность: 01:35:21
Качество видео: DVD5
Видеокодек: MPEG-2
Битрейт видео: ~5 328 Kbps
Размер кадра: PAL 16:9 [email protected]х576
Аудиокодек: AC3 6 ch (Front: L C R, Side: L R, LFE)
Битрейт аудио: 384 Kbps
Бонусы: нет
Сэмпл: Скачать

DVDinfo

Size: 4.08 Gb ( 4 283 096,00 KBytes ) - DVD-5
Enabled regions: 1, 2, 3, 4, 5, 6, 7, 8
VTS_01 :
Play Length: 01:35:21
Video: PAL 16:9 (720x576) VBR, Auto Letterboxed
Audio:
  • Russian (Dolby AC3, 6 ch)
    VTS_02 :
    Play Length: 00:00:15
    Video: PAL 16:9 (720x576) VBR, Auto Letterboxed
    Audio:
  • English (Dolby AC3, 2 ch)
    VTS_03 :
    Play Length: 00:00:08
    Video: PAL 4:3 (720x576) VBR
    VTS_04 :
    Play Length: 00:00:05
    Video: PAL 16:9 (720x576) VBR, Auto Letterboxed
    * Menus Information *
    VIDEO_TS Menu
    Video:
  • NTSC 4:3 (720x480) VBR
  • Auto Pan&Scan, Auto Letterboxed
    Russian Language Unit :
  • Title Menu
    VTS_01 Menu
    Video:
  • PAL 16:9 (720x576) VBR
  • Auto Letterboxed
    Audio:
  • Not specified (Dolby AC3, 2 ch)
    Russian Language Unit :
  • Root Menu
  • Chapter (PTT) Menu
    VTS_02 Menu
    Video:
  • NTSC 4:3 (720x480) VBR
  • Auto Pan&Scan, Auto Letterboxed
    Language Unit :
  • Chapter (PTT) Menu
    VTS_03 Menu
    Video:
  • NTSC 4:3 (720x480) VBR
  • Auto Pan&Scan, Auto Letterboxed
    Language Unit :
  • Chapter (PTT) Menu
    VTS_04 Menu
    Video:
  • NTSC 4:3 (720x480) VBR
  • Auto Pan&Scan, Auto Letterboxed
    Language Unit :
  • Chapter (PTT) Menu

Медиаинфо

Format : MPEG-PS
File size : 1 024 MiB
Duration : 24mn 33s
Overall bit rate mode : Variable
Overall bit rate : 5 828 Kbps
Video
ID : 224 (0xE0)
Format : MPEG Video
Format version : Version 2
Format profile : [email protected]
Format settings, BVOP : Yes
Format settings, Matrix : Custom
Format settings, GOP : M=3, N=15
Duration : 24mn 33s
Bit rate mode : Variable
Bit rate : 5 328 Kbps
Maximum bit rate : 8 000 Kbps
Width : 720 pixels
Height : 576 pixels
Display aspect ratio : 16:9
Frame rate : 25.000 fps
Standard : PAL
Color space : YUV
Chroma subsampling : 4:2:0
Bit depth : 8 bits
Scan type : Interlaced
Scan order : Top Field First
Compression mode : Lossy
Bits/(Pixel*Frame) : 0.514
Stream size : 936 MiB (91%)
Audio
ID : 189 (0xBD)-128 (0x80)
Format : AC-3
Format/Info : Audio Coding 3
Mode extension : CM (complete main)
Format settings, Endianness : Big
Muxing mode : DVD-Video
Duration : 24mn 33s
Bit rate mode : Constant
Bit rate : 384 Kbps
Channel(s) : 6 channels
Channel positions : Front: L C R, Side: L R, LFE
Sampling rate : 48.0 KHz
Bit depth : 16 bits
Compression mode : Lossy
Delay relative to video : -664ms
Stream size : 67.5 MiB (7%)
Menu

Скриншоты меню

     
Скриншоты:
       
         

_________________
Скачал сам, дай скачать другому!!!Не забудь сказать -
Other forum [Profile] [PM]
Similar theme
Forum Topic Author Torrent Replies Last Post
./templates/default/images/folder_dl.gif Rock Эхо тишины - Прощание (2006) [MP3|320 кб/с] UndegraundMen
0 | 1

2 | 2103

0

2019-10-14 07:15
Clavik Latest
Display posts from previous:    
Reply to topic

The time now is: Today 02:41

All times are GMT + 3 Hours



You cannot post new topics in this forum
You cannot reply to topics in this forum
You cannot edit your posts in this forum
You cannot delete your posts in this forum
You cannot vote in polls in this forum
You cannot attach files in this forum
You cannot download files in this forum