Today is a free download without charge Download

О чём молчат девушки (Карен Оганесян) [2013..,Комедия, DVD5]

Reply to topic
 
Author
Message

Meshanik ®

Gender:

Longevity: 8 years 10 months

Posts: 3866

Location: Los Angeles

Торрент-статистика

Post 06-May-2013 03:57

[Quote]

О чём молчат девушки- Русское название: О чём молчат девушки
Год выпуска: 2013
Производство: Россия / Централ Партнершип
Жанр: Комедия
Продолжительность: 01:21:57
Перевод: Не требуется (Русский)
Субтитры: нет-Дата мировой премьеры: 9 марта 2013
Дата российской премьеры: 7 марта 2013
Дата выхода DVD релиза: 18 апреля 2013
Дата выхода Blu-Ray релиза: 18 апреля 2013-Режиссер: Карен Оганесян
Продюсер: Карен Оганесян, Станислав Довжик
Актеры: Юлия Пересильд, Олеся Судзиловская, Ольга Смирнова, Таисия Вилкова, Михаил Пореченков, Ольга Тумайкина, Виталий Хаев-Описание фильма:
Четыре подруги сбегают из Москвы на уикенд в солнечную Испанию, чтобы на пляже, в SPA и за коктейлями на террасе расслабиться и поболтать обо всем. Но бывают обстоятельства, в которых девушки начинают говорить о том, о чем они обычно молчат…-
Релиз группа: -Качество видео: DVD5
Видеокодек: MPEG-2
Битрейт видео: ~5994 Кбит/сек
Размер кадра: [email protected]х576
Аудиокодек: AC3, 6 ch
Битрейт аудио: 448 Кбит/сек-

MediaInfo:

Общее
Полное имя : O chem molchat devushki\VIDEO_TS\VTS_03_1.VOB
Формат : MPEG-PS
Размер файла : 1024 Мбайт
Продолжительность : 21 м.
Режим общего битрейта : Переменный
Общий поток : 6573 Кбит/сек
Видео
Идентификатор : 224 (0xE0)
Формат : MPEG Video
Версия формата : Version 2
Профиль формата : [email protected]
Параметр BVOP формата : Да
Параметр матрицы формата : По умолчанию
Параметр GOP формата : M=3, N=12
Продолжительность : 21 м.
Вид битрейта : Переменный
Битрейт : 5994 Кбит/сек
Максимальный битрейт : 8000 Кбит/сек
Ширина : 720 пикселей
Высота : 576 пикселей
Соотношение сторон : 16:9
Частота кадров : 25,000 кадров/сек
Стандарт вещания : PAL
Цветовое пространство : YUV
Субдискретизация насыщенности : 4:2:0
Битовая глубина : 8 бит
Тип развёртки : Прогрессивная
Метод сжатия : С потерями
Бит/(Пиксели*Кадры) : 0.578
TimeCode_FirstFrame : 00:00:00:00
TimeCode_Source : Group of pictures header
Размер потока : 934 Мбайт (91%)
Аудио
Идентификатор : 189 (0xBD)-128 (0x80)
Формат : AC-3
Формат/Информация : Audio Coding 3
Расширение режима : CM (complete main)
Параметр Endianness формата : Big
Режим смешивания : DVD-Video
Продолжительность : 21 м.
Вид битрейта : Постоянный
Битрейт : 448 Кбит/сек
Каналы : 6 каналов
Расположение каналов : Front: L C R, Side: L R, LFE
Частота : 48,0 КГц
Битовая глубина : 16 бит
Метод сжатия : С потерями
Размер потока : 69,8 Мбайт (7%)

DVDInfo:

Title: O chem molchat devushki
Size: 3.84 Gb ( 4 024 300,00 KBytes ) - DVD-5
Enabled regions: 1, 2, 3, 4, 5, 6, 7, 8
VTS_01 :
Play Length: 00:00:19
Video: PAL 4:3 (720x576) VBR
Audio:
  • Not specified (Dolby AC3, 2 ch)
  • Not specified (Dolby AC3, 2 ch)
    Subtitles:
  • Not specified
    VTS_02 :
    Play Length: 00:00:15
    Video: PAL 16:9 (720x576) VBR, Auto Letterboxed
    Audio:
  • Not specified (Dolby AC3, 2 ch)
  • Not specified (Dolby AC3, 2 ch)
    Subtitles:
  • Not specified
    VTS_03 :
    Play Length: 01:21:57
    Video: PAL 16:9 (720x576) VBR, Auto Letterboxed
    Audio:
  • Russian (Dolby AC3, 6 ch)
    * Menus Information *
    VIDEO_TS Menu
    Video:
  • PAL 16:9 (720x576) VBR
  • Auto Pan&Scan, Auto Letterboxed
    English Language Unit :
  • Title Menu
    VTS_01 Menu
    Video:
  • PAL 16:9 (720x576) VBR
  • Auto Letterboxed
    Audio:
  • Not specified (Dolby AC3, 2 ch)
    English Language Unit :
  • Root Menu
    VTS_02 Menu
    Video:
  • PAL 4:3 (720x576) VBR
    English Language Unit :
  • Root Menu
    VTS_03 Menu
    Video:
  • PAL 4:3 (720x576) VBR
    English Language Unit :
  • Root Menu

Cкриншоты меню

   

Дополнительно

Бонусы: нет
Субтитры: нет
Скриншоты:
       
       
-
Other forum [Profile] [PM]

Dracula

Longevity: 7 years 6 months

Posts: 11224

Торрент-статистика

Post 15-May-2013 13:57 (after 9 days)

Топик был перенесен из форума Зарубежное кино (DVD) в форум Новинки (DVD, HD Video)


RUGUI
 

Dracula

Longevity: 7 years 6 months

Posts: 11224

Торрент-статистика

Post 02-Jan-2014 15:52 (after 7 months 27 days)

Топик был перенесен из форума Новинки (DVD, HD Video) в форум Зарубежное кино (HD Video)


kogesan
 
Display posts from previous:    
Reply to topic

The time now is: Today 02:09

All times are GMT + 3 Hours



You cannot post new topics in this forum
You cannot reply to topics in this forum
You cannot edit your posts in this forum
You cannot delete your posts in this forum
You cannot vote in polls in this forum
You cannot attach files in this forum
You cannot download files in this forum