Today is a free download without charge Download

Гробовщик / The Mortician (Гарет Максвелл Робертс) [2011.., Триллер, DVD5]

Reply to topic
 
Author
Message

Meshanik ®

Gender:

Longevity: 8 years 10 months

Posts: 3866

Location: Los Angeles

Торрент-статистика

Post 06-May-2013 03:47

[Quote]

Гробовщик / The Mortician- Русское название: Гробовщик
Оригинальное название: The Mortician
Год выпуска: 2011
Производство: Великобритания
Студия: Belladonna Productions, Films In Motion, Full Circle Films
Жанр: Триллер
Продолжительность: 01:25:25
Перевод: Многоголосый закадровый (профессиональный)
Вид субтитров: Вшитые отключаемые
Язык субтитров: Русский
Дата мировой премьеры: 14 февраля 2012
Дата выхода DVD и Blu-Ray релиза: 16 февраля 2012, «CP-Digital»
Режиссер: Гарет Максвелл Робертс
Продюсер: Рене Бастиан, Гарет Максвелл Робертс, Риз Дэвид Томас
Актеры: Метод Мэн, Дэш Майок, Э.Дж. Бонилла, Джуди Марте, Анджелик Замбрана, Уенделл Пирс, Дэна Фучс, Эдвард Ферлонг, Круз Сантьяго, Вернон Брукс
Описание фильма:
Одинокий и необщительный Гробовщик работает паталогоанатомом в городском морге. Он изо дня в день, сталкиваясь с трупами, с безразличием относится к своей работе. Жизнь его течет монотонно и спокойно. Но с появлением бывшего преступника Ноа, досрочно освобожденного из мест заключения, который пришел работать в морг, жизнь Гробовщика меняется.
А когда он знакомится с маленьким мальчиком Кейном, в его жизни открывается новая страничка. Дело в том, что мать этого мальчугана при невыясненных и странных обстоятельствах была зверски убита. Гробовщик и Кейн поневоле оказываются втянуты в это дело. Начинается опасная борьба с мистическими и пугающими подробностями, не только за свою жизнь, но и жизнь Кейна. Эта борьба с насилием и произволом может грозить Гробовщику и Кейну тюремным заключением не на один год.

Качество видео: DVD5
Видеокодек: MPEG-2
Битрейт видео: ~6228 kb/s
Размер кадра: PAL 16:9 ([email protected])
Аудиокодек и битрейт аудио:
Аудио #1: Английский ( AC3, 6 ch, 448 kb/s)
Аудио #2: Русский ( AC3, 6 ch, 448 kb/s )
Дополнительно: нет
Релиз от:

MediaInfo

Общее
Полное имя : D:\Гробовщик DVD5\Гробовщик DVD5 (newmover)\VIDEO_TS\VTS_02_1.VOB
Формат : MPEG-PS
Размер файла : 1000 Мбайт
Продолжительность : 19 м.
Режим общего битрейта : Переменный
Общий поток : 7269 Кбит/сек
Видео
Идентификатор : 224 (0xE0)
Формат : MPEG Video
Версия формата : Version 2
Профиль формата : [email protected]
Параметр BVOP формата : Да
Параметр матрицы формата : Выборочная
Продолжительность : 19 м.
Вид битрейта : Переменный
Битрейт : 6228 Кбит/сек
Максимальный битрейт : 8000 Кбит/сек
Ширина : 720 пикселей
Высота : 576 пикселей
Соотношение сторон : 16:9
Частота кадров : 25,000 кадров/сек
Стандарт вещания : PAL
Цветовое пространство : YUV
Субдискретизация насыщенности : 4:2:0
Битовая глубина : 8 бит
Тип развёртки : Прогрессивная
Метод сжатия : С потерями
Бит/(Пиксели*Кадры) : 0.601
Размер потока : 857 Мбайт (86%)
Аудио #1
Идентификатор : 189 (0xBD)-128 (0x80)
Формат : AC-3
Формат/Информация : Audio Coding 3
Расширение режима : CM (complete main)
Режим смешивания : DVD-Video
Продолжительность : 19 м.
Вид битрейта : Постоянный
Битрейт : 448 Кбит/сек
Каналы : 6 каналов
Расположение каналов : Front: L C R, Side: L R, LFE
Частота : 48,0 КГц
Битовая глубина : 16 бит
Метод сжатия : С потерями
Размер потока : 61,6 Мбайт (6%)
Аудио #2
Идентификатор : 189 (0xBD)-129 (0x81)
Формат : AC-3
Формат/Информация : Audio Coding 3
Расширение режима : CM (complete main)
Режим смешивания : DVD-Video
Продолжительность : 19 м.
Вид битрейта : Постоянный
Битрейт : 448 Кбит/сек
Каналы : 6 каналов
Расположение каналов : Front: L C R, Side: L R, LFE
Частота : 48,0 КГц
Битовая глубина : 16 бит
Метод сжатия : С потерями
Размер потока : 61,6 Мбайт (6%)
Текст #1
Идентификатор : 189 (0xBD)-32 (0x20)
Формат : RLE
Формат/Информация : Run-length encoding
Режим смешивания : DVD-Video
Текст #2
Идентификатор : 189 (0xBD)-33 (0x21)
Формат : RLE
Формат/Информация : Run-length encoding
Режим смешивания : DVD-Video
Меню

DVDInfo

Title: Гробовщик DVD5 (newmover)
Size: 4.31 Gb ( 4 518 988,00 KBytes ) - DVD-5
Enabled regions: 1, 2, 3, 4, 5, 6, 7, 8
VTS_01 :
Play Length: 00:00:16
Video: PAL 16:9 (720x576) VBR, Auto Letterboxed
Audio:
  • Not specified (Dolby AC3, 2 ch)
    VTS_02 :
    Play Length: 01:25:25
    Video: PAL 16:9 (720x576) VBR, Auto Letterboxed
    Audio:
  • English (Dolby AC3, 6 ch)
  • Russian (Dolby AC3, 6 ch)
    Subtitles:
  • Russian

Скриншоты меню

     
Скриншоты:
             -
Other forum [Profile] [PM]
Display posts from previous:    
Reply to topic

The time now is: Today 09:59

All times are GMT + 3 Hours



You cannot post new topics in this forum
You cannot reply to topics in this forum
You cannot edit your posts in this forum
You cannot delete your posts in this forum
You cannot vote in polls in this forum
You cannot attach files in this forum
You cannot download files in this forum