Today is a free download without charge Download

Учитель английского / The English Teacher (Крейг Зиск / Craig Zisk) [2013, США, драма, комедия, WEB-DL 720p] VO + Original (Eng) + Sub (eng)

Reply to topic
 
Author
Message

Omen ®

Longevity: 8 years 5 months

Posts: 181087

Торрент-статистика

Post 06-May-2013 00:51

[Quote]

Учитель английского : The English Teacher Страна: США
Год выпуска: 2013
Жанр: драма, комедия
Продолжительность: 01:31:35
Перевод: Одноголосый закадровый [humbert sound studio]
русские субтитры: нет-Режиссёр: Крейг Зиск : Craig Zisk
В главных ролях: Джулианна Мур, Майкл Ангарано, Грег Киннер, Лили Коллинз, Нейтан Лейн, Никки Блонски, Фиона Шоу, Джессика Хехт, Чарли Сэкстон, Эрин Вильхельми-Описание: Линда Синклер — учительница английского языка в средней школе маленького городка Кингстон, штат Пенсильвания. Линда вкладывает душу в свой предмет и ученикам нравятся её уроки, но она одинока, жизнь её размеренна и лишена ярких событий. Когда её бывший ученик Джейсон Шервуд возвращается домой из Нью-Йорка, не добившись успеха на поприще драматурга, Линда убеждает его поставить пьесу в родной школе. Но строгий отец Джейсона, доктор Том Шервуд, настаивает, чтобы сын поступил в юридическую школу...- -Качество: WEB-DL 720p
Формат: MKV
Видео кодек: AVC
Аудио кодек: АС3
Видео: 1280x532, 23.976 fps, ~3 874 kbps avg, 0.237 bit/pixel
Аудио #1: 48 kHz, AC3 Dolby Digital, 2/0 (L,R) ch, ~224 kbps
Аудио #2: 48 kHz, AC3 Dolby Digital, 3/2 (L,C,R,l,r) + LFE ch, ~384 kbps
субтитры: английские
навигация по главам: 10 глав

скриншоты

MediaInfo

Общее
Уникальный идентификатор : 243795361379986993028494489134506656827 (0xB7694757786C6325AF0C2866231F443B)
Полное имя : D:\Im\Учитель английского\The English Teacher.2013.WEB-DL 720p.mkv
Формат : Matroska
Версия формата : Version 4 / Version 2
Размер файла : 2,93 Гбайт
Продолжительность : 1 ч. 31 м.
Общий поток : 4573 Кбит/сек
Дата кодирования : UTC 2013-05-05 17:54:19
Программа кодирования : mkvmerge v6.1.0 ('Old Devil') built on Mar 2 2013 14:32:37
Библиотека кодирования : libebml v1.3.0 + libmatroska v1.4.0
Видео
Идентификатор : 1
Формат : AVC
Формат/Информация : Advanced Video Codec
Профиль формата : [email protected]
Параметр CABAC формата : Нет
Параметр ReFrames формата : 2 кадра
Параметр GOP формата : N=1
Идентификатор кодека : V_MPEG4/ISO/AVC
Продолжительность : 1 ч. 31 м.
Битрейт : 3874 Кбит/сек
Ширина : 1280 пикселей
Высота : 532 пикселя
Соотношение сторон : 2,40:1
Частота кадров : 23,976 кадра/сек
Цветовое пространство : YUV
Субдискретизация насыщенности : 4:2:0
Битовая глубина : 8 бит
Тип развёртки : Прогрессивная
Бит/(Пиксели*Кадры) : 0.237
Размер потока : 2,48 Гбайт (85%)
Язык : English
Default : Да
Forced : Нет
Основные цвета : BT.709-5, BT.1361, IEC 61966-2-4, SMPTE RP177
Характеристики трансфера : BT.709-5, BT.1361
Коэффициенты матрицы : BT.709-5, BT.1361, IEC 61966-2-4 709, SMPTE RP177
Аудио #1
Идентификатор : 2
Формат : AC-3
Формат/Информация : Audio Coding 3
Расширение режима : CM (complete main)
Идентификатор кодека : A_AC3
Продолжительность : 1 ч. 31 м.
Вид битрейта : Постоянный
Битрейт : 224 Кбит/сек
Каналы : 2 канала
Расположение каналов : Front: L R
Частота : 48,0 КГц
Битовая глубина : 16 бит
Метод сжатия : С потерями
Размер потока : 147 Мбайт (5%)
Заголовок : VO [humbert sound studio]
Язык : Russian
Default : Да
Forced : Нет
Аудио #2
Идентификатор : 3
Формат : AC-3
Формат/Информация : Audio Coding 3
Расширение режима : CM (complete main)
Идентификатор кодека : A_AC3
Продолжительность : 1 ч. 31 м.
Вид битрейта : Постоянный
Битрейт : 384 Кбит/сек
Каналы : 6 каналов
Расположение каналов : Front: L C R, Side: L R, LFE
Частота : 48,0 КГц
Битовая глубина : 16 бит
Метод сжатия : С потерями
Размер потока : 252 Мбайт (8%)
Заголовок : ENG
Язык : English
Default : Нет
Forced : Нет
Текст
Идентификатор : 4
Формат : UTF-8
Идентификатор кодека : S_TEXT/UTF8
Идентификатор кодека/Информация : UTF-8 Plain Text
Заголовок : Eng Sub
Язык : English
Default : Да
Forced : Нет
Меню
00:00:00.000 : en:Chapter 1
00:10:00.000 : en:Chapter 2
00:20:00.000 : en:Chapter 3
00:30:00.000 : en:Chapter 4
00:40:00.000 : en:Chapter 5
00:50:00.000 : en:Chapter 6
01:00:00.000 : en:Chapter 7
01:10:00.000 : en:Chapter 8
01:20:00.000 : en:Chapter 9
01:24:02.000 : en:End Credits
Не забываем оставлять комментарии к релизу, мне интересно Ваше мнение!
Other forum [Profile] [PM]
Display posts from previous:    
Reply to topic

The time now is: Today 23:37

All times are GMT + 3 Hours



You cannot post new topics in this forum
You cannot reply to topics in this forum
You cannot edit your posts in this forum
You cannot delete your posts in this forum
You cannot vote in polls in this forum
You cannot attach files in this forum
You cannot download files in this forum