Today is a free download without charge Download

Мертвые тени / Dead Shadows (Давид Шолева / David Cholewa) [2012, Франция, ужасы, BDRip 720p] VO (den904) + Original (Fre)

Reply to topic
 
Author
Message

Omen ®

Longevity: 8 years 5 months

Posts: 181087

Торрент-статистика

Post 06-May-2013 00:51

[Quote]

Мертвые тени / Dead Shadows Страна: Франция
Студия: DC Medias
Жанр: ужасы
Год выпуска: 2012
Продолжительность: 01:14:43
Перевод:Одноголосый закадровый den904 // Перевод: МЕГАПЫХАРЬ
Cубтитры: нет
Оригинальная аудиодорожка: французский
Режиссер: Давид Шолева / David Cholewa
В ролях: Жиль Бэррет, Марго Деви, Сильвен Дюбуа, Джон Фэллон, Норберт Феррер, Блондин Мармиже, Франк Беню, Кристоф Перес, Урель Патипьер, Байа Риаз
Описание:
Одиннадцать лет назад — в тот день, когда с Земли можно было видеть пролетающую комету Хейли, были зверски убиты родители Криса. Сегодня годовщина этого ужасного события, а ночью на небе вновь появится комета, которую готовятся наблюдать его соседи. Однако, наступает ночь, и Крис замечает, что окружающие его люди ведут себя как-то странно — парень подозревает в этом связь с небесным явлением. Крис, с помощью нескольких соседей, пытается выбраться из дома, чтобы не стать жертвой остальных жильцов, превратившихся в каких-то потусторонних тварей…
- || || -Тип релиза: BDRip 720p (рип от CHD)
Контейнер: MKV
Видео: AVC (x264), 1280x690 (1,85:1) at 23,976 fps, 6852 Кbps, 0.324 bpp
Аудио 1: DTS; 1536 Kbps; CBR; 6 ch; 48 khz; 16 bit | VO - den904 |
Аудио 2: DTS; 1536 Kbps; CBR; 6 ch; 48 khz; 16 bit | Французский |

Скриншоты || x264 Info || MediaInfo || Notes

MediaInfo

Код:
Общее
Уникальный идентификатор                 : 181686230164559110965927614620209476271 (0x88AF7EBFE6A26129BB63B84969BF72AF)
Полное имя                               : Мертвые тени.2012.L1.720p.BluRay.x264-CHD.mkv
Формат                                   : Matroska
Версия формата                           : Version 4 / Version 2
Размер файла                             : 5,15 Гбайт
Продолжительность                        : 1 ч. 14 м.
Общий поток                              : 9872 Кбит/сек
Название фильма                          : profile.php?mode=viewprofile&u=22488948
Дата кодирования                         : UTC 2013-05-05 06:30:57
Программа кодирования                    : mkvmerge v6.2.0 ('Promised Land') built on Apr 28 2013 12:22:01
Библиотека кодирования                   : libebml v1.3.0 + libmatroska v1.4.0
Видео
Идентификатор                            : 1
Формат                                   : AVC
Формат/Информация                        : Advanced Video Codec
Профиль формата                          : [email protected]
Параметр CABAC формата                   : Да
Параметр ReFrames формата                : 9 кадров
Идентификатор кодека                     : V_MPEG4/ISO/AVC
Продолжительность                        : 1 ч. 14 м.
Битрейт                                  : 6852 Кбит/сек
Ширина                                   : 1280 пикселей
Высота                                   : 690 пикселей
Соотношение сторон                       : 1,85:1
Режим частоты кадров                     : Постоянный
Частота кадров                           : 23,976 кадра/сек
Цветовое пространство                    : YUV
Субдискретизация насыщенности            : 4:2:0
Битовая глубина                          : 8 бит
Тип развёртки                            : Прогрессивная
Бит/(Пиксели*Кадры)                      : 0.324
Размер потока                            : 3,47 Гбайт (67%)
Библиотека кодирования                   : x264 core 130 r2273 b3065e6
Настройки программы                      : cabac=1 / ref=9 / deblock=1:-3:-3 / analyse=0x3:0x113 / me=umh / subme=11 / psy=1 / psy_rd=1.10:0.15 / mixed_ref=1 / me_range=32 / chroma_me=1 / trellis=2 / 8x8dct=1 / cqm=0 / deadzone=21,11 / fast_pskip=0 / chroma_qp_offset=-2 / threads=12 / lookahead_threads=1 / sliced_threads=0 / nr=0 / decimate=1 / interlaced=0 / bluray_compat=0 / constrained_intra=0 / bframes=6 / b_pyramid=2 / b_adapt=2 / b_bias=0 / direct=3 / weightb=1 / open_gop=0 / weightp=2 / keyint=250 / keyint_min=23 / scenecut=40 / intra_refresh=0 / rc_lookahead=40 / rc=2pass / mbtree=0 / bitrate=6852 / ratetol=1.0 / qcomp=0.60 / qpmin=0 / qpmax=69 / qpstep=4 / cplxblur=20.0 / qblur=0.5 / vbv_maxrate=40000 / vbv_bufsize=30000 / nal_hrd=none / ip_ratio=1.40 / pb_ratio=1.30 / aq=1:0.80
Язык                                     : English
Default                                  : Да
Forced                                   : Нет
Аудио #1
Идентификатор                            : 2
Формат                                   : DTS
Формат/Информация                        : Digital Theater Systems
Режим                                    : 16
Параметр Endianness формата              : Big
Идентификатор кодека                     : A_DTS
Продолжительность                        : 1 ч. 14 м.
Вид битрейта                             : Постоянный
Битрейт                                  : 1509 Кбит/сек
Каналы                                   : 6 каналов
Расположение каналов                     : Front: L C R, Side: L R, LFE
Частота                                  : 48,0 КГц
Битовая глубина                          : 16 бит
Метод сжатия                             : С потерями
Размер потока                            : 807 Мбайт (15%)
Заголовок                                : VO [den904]
Язык                                     : Russian
Default                                  : Да
Forced                                   : Нет
Аудио #2
Идентификатор                            : 3
Формат                                   : DTS
Формат/Информация                        : Digital Theater Systems
Режим                                    : 16
Параметр Endianness формата              : Big
Идентификатор кодека                     : A_DTS
Продолжительность                        : 1 ч. 14 м.
Вид битрейта                             : Постоянный
Битрейт                                  : 1509 Кбит/сек
Каналы                                   : 6 каналов
Расположение каналов                     : Front: L C R, Side: L R, LFE
Частота                                  : 48,0 КГц
Битовая глубина                          : 16 бит
Метод сжатия                             : С потерями
Размер потока                            : 807 Мбайт (15%)
Язык                                     : French
Default                                  : Нет
Forced                                   : Нет
Other forum [Profile] [PM]
Display posts from previous:    
Reply to topic

The time now is: Today 20:28

All times are GMT + 3 Hours



You cannot post new topics in this forum
You cannot reply to topics in this forum
You cannot edit your posts in this forum
You cannot delete your posts in this forum
You cannot vote in polls in this forum
You cannot attach files in this forum
You cannot download files in this forum