Today is a free download without charge Download

Пешка / Pawn (Дэвид А. Армстронг / David A. Armstrong) [2013, США, триллер, криминал, BDRip 720p] VO (den904) + Original (Eng) + Sub (Eng)

Reply to topic
 
Author
Message

Omen ®

Longevity: 8 years 5 months

Posts: 181087

Торрент-статистика

Post 06-May-2013 00:51

[Quote]

Пешка / Pawn Страна: США
Студия: Imprint Entertainment, Most Films, ...
Жанр: триллер, криминал
Год выпуска: 2013
Продолжительность: 01:28:25
Перевод:Одноголосый закадровый den904 // Перевод: Janetta
Cубтитры: английские
Оригинальная аудиодорожка: английский
Режиссер: Дэвид А. Армстронг / David A. Armstrong
В ролях: Рэй Лиотта, Форест Уитакер, Джон Ли Броди, Никки Рид, Дебора Твисс, Шон Фэрис, Мартон Чокаш, Майкл Чиклис, Стивен Лэнг, Пол Джуд Летерски
Описание:
Это история об экс-заключенном, который запутывается в хитрой игре между федералами, местной полицией и бандитами.
- || -Тип релиза: BDRip 720p (рип от DON)
Контейнер: MKV
Видео: AVC (x264), 1280x532 (2,40:1) at 23,976 fps, 4638 Кbps, 0.284 bpp
Аудио 1: DTS; 1536 Kbps; CBR; 6 ch; 48 khz; 24 bit | VO - den904 |
Аудио 2: DTS; 1536 Kbps; CBR; 6 ch; 48 khz; 24 bit | Английский |
Формат субтитров: softsub (SRT)

Скриншоты || x264 Info || MediaInfo || Notes

MediaInfo

Код:
Общее
Уникальный идентификатор                 : 201982906206439898088564252449055905184 (0x97F47E23AABBB0B299D4B5E9A43F15A0)
Полное имя                               : Пешка.2013.L1.720p.BluRay.x264-DON.mkv
Формат                                   : Matroska
Версия формата                           : Version 4 / Version 2
Размер файла                             : 4,83 Гбайт
Продолжительность                        : 1 ч. 28 м.
Общий поток                              : 7813 Кбит/сек
Название фильма                          : profile.php?mode=viewprofile&u=22488948
Дата кодирования                         : UTC 2013-05-05 07:55:31
Программа кодирования                    : mkvmerge v6.2.0 ('Promised Land') built on Apr 28 2013 12:22:01
Библиотека кодирования                   : libebml v1.3.0 + libmatroska v1.4.0
Видео
Идентификатор                            : 1
Формат                                   : AVC
Формат/Информация                        : Advanced Video Codec
Профиль формата                          : [email protected]
Параметр CABAC формата                   : Да
Параметр ReFrames формата                : 11 кадров
Идентификатор кодека                     : V_MPEG4/ISO/AVC
Продолжительность                        : 1 ч. 28 м.
Битрейт                                  : 4638 Кбит/сек
Ширина                                   : 1280 пикселей
Высота                                   : 532 пикселя
Соотношение сторон                       : 2,40:1
Режим частоты кадров                     : Постоянный
Частота кадров                           : 23,976 кадра/сек
Цветовое пространство                    : YUV
Субдискретизация насыщенности            : 4:2:0
Битовая глубина                          : 8 бит
Тип развёртки                            : Прогрессивная
Бит/(Пиксели*Кадры)                      : 0.284
Размер потока                            : 2,86 Гбайт (59%)
Библиотека кодирования                   : x264 core 130 r2273 b3065e6
Настройки программы                      : cabac=1 / ref=11 / deblock=1:-3:-3 / analyse=0x3:0x133 / me=umh / subme=10 / psy=1 / psy_rd=1.05:0.00 / mixed_ref=1 / me_range=32 / chroma_me=1 / trellis=2 / 8x8dct=1 / cqm=0 / deadzone=21,11 / fast_pskip=0 / chroma_qp_offset=-2 / threads=12 / lookahead_threads=2 / sliced_threads=0 / nr=0 / decimate=0 / interlaced=0 / bluray_compat=0 / constrained_intra=0 / bframes=9 / b_pyramid=2 / b_adapt=2 / b_bias=0 / direct=3 / weightb=1 / open_gop=0 / weightp=2 / keyint=240 / keyint_min=23 / scenecut=40 / intra_refresh=0 / rc_lookahead=60 / rc=crf / mbtree=0 / crf=16.5 / qcomp=0.75 / qpmin=0 / qpmax=69 / qpstep=4 / vbv_maxrate=50000 / vbv_bufsize=62500 / crf_max=0.0 / nal_hrd=none / ip_ratio=1.20 / pb_ratio=1.10 / aq=1:0.70
Язык                                     : English
Default                                  : Да
Forced                                   : Нет
Аудио #1
Идентификатор                            : 2
Формат                                   : DTS
Формат/Информация                        : Digital Theater Systems
Режим                                    : 16
Параметр Endianness формата              : Big
Идентификатор кодека                     : A_DTS
Продолжительность                        : 1 ч. 28 м.
Вид битрейта                             : Постоянный
Битрейт                                  : 1510 Кбит/сек
Каналы                                   : 6 каналов
Расположение каналов                     : Front: L C R, Side: L R, LFE
Частота                                  : 48,0 КГц
Битовая глубина                          : 24 бит
Метод сжатия                             : С потерями
Размер потока                            : 955 Мбайт (19%)
Заголовок                                : VO [den904]
Язык                                     : Russian
Default                                  : Да
Forced                                   : Нет
Аудио #2
Идентификатор                            : 3
Формат                                   : DTS
Формат/Информация                        : Digital Theater Systems
Режим                                    : 16
Параметр Endianness формата              : Big
Идентификатор кодека                     : A_DTS
Продолжительность                        : 1 ч. 28 м.
Вид битрейта                             : Постоянный
Битрейт                                  : 1509 Кбит/сек
Каналы                                   : 6 каналов
Расположение каналов                     : Front: L C R, Side: L R, LFE
Частота                                  : 48,0 КГц
Битовая глубина                          : 24 бит
Метод сжатия                             : С потерями
Размер потока                            : 954 Мбайт (19%)
Язык                                     : English
Default                                  : Нет
Forced                                   : Нет
Текст
Идентификатор                            : 4
Формат                                   : UTF-8
Идентификатор кодека                     : S_TEXT/UTF8
Идентификатор кодека/Информация          : UTF-8 Plain Text
Язык                                     : English
Default                                  : Нет
Forced                                   : Нет
Меню
00:00:00.000                             : :00:00:00.000
00:04:50.165                             : :00:04:50.165
00:15:12.995                             : :00:15:12.995
00:23:11.223                             : :00:23:11.223
00:31:56.331                             : :00:31:56.331
00:38:36.940                             : :00:38:36.940
00:47:33.809                             : :00:47:33.809
00:58:41.476                             : :00:58:41.476
01:06:21.644                             : :01:06:21.644
01:10:47.952                             : :01:10:47.952
01:14:36.514                             : :01:14:36.514
01:21:46.944                             : :01:21:46.944

x264 Info

frame I:1442 Avg QP:14.23 size: 83694
frame P:26215 Avg QP:15.58 size: 40076
frame B:99543 Avg QP:15.93 size: 20149
consecutive B-frames: 2.2% 2.6% 5.8% 19.8% 16.9% 31.8% 7.9% 8.1% 2.4% 2.5%
Other forum [Profile] [PM]
Display posts from previous:    
Reply to topic

The time now is: Today 12:11

All times are GMT + 3 Hours



You cannot post new topics in this forum
You cannot reply to topics in this forum
You cannot edit your posts in this forum
You cannot delete your posts in this forum
You cannot vote in polls in this forum
You cannot attach files in this forum
You cannot download files in this forum