Today is a free download without charge Download

Контрудар / Counterpunch (Кеннет Кастилло / Kenneth Castillo) [2013, США, боевик, драма, биография, спорт, WEB-DL 720p] VO + Original (ENG) + SUB (eng)

Reply to topic
 
Author
Message

Omen ®

Longevity: 8 years 5 months

Posts: 181087

Торрент-статистика

Post 06-May-2013 00:51

[Quote]

Контрудар : Counterpunch«Based on a True Story» Страна: США
Год выпуска: 2013
Жанр: боевик, драма, биография, спорт
Продолжительность: 01:37:07
Перевод: Одноголосый закадровый
русские субтитры: нет-Режиссёр: Кеннет Кастилло : Kenneth Castillo
В главных ролях: Альваро Орландо, Стивен Бауэр, Дэнни Трехо, Оскар Торрес, Камила Банус, Бэйли Гарсиа, Айвон Колл, Жилон Гай, Йениффер Беренс-Описание: Фильм основан на реальной истории. Молодой боксер из Майами Эмилио (Альваро Орландо), мечтающий о победе на чемпионате мира по боксу, оказывается после поражения на распутье. Но он отчаянно борется и с помощью своего тренера (Дэнни Трехо) снова попадает в число претендентов на чемпионский титул. И лицом к лицу встречается на ринге со своим конкурентом, и он будет наносить удар за ударом до тех пор, пока его противник не рухнет на пол ринга...- -Качество: WEB-DL 720p
Формат: MKV
Видео кодек: AVC
Аудио кодек: АС3
Видео: 1280x528, 23.976 fps, ~3 876 kbps avg, 0.239 bit/pixel
Аудио #1: 48 kHz, AC3 Dolby Digital, 3/2 (L,C,R,l,r) + LFE ch, ~384 kbps
Аудио #2: 48 kHz, AC3 Dolby Digital, 3/2 (L,C,R,l,r) + LFE ch, ~384 kbps
субтитры: английские
навигация по главам: 12 глав

скриншоты


MediaInfo

Общее
Уникальный идентификатор : 234419799549148060045049337541908627102 (0xB05B9C74629640C988AF904A99A1FE9E)
Полное имя : D:\Im\Контрудар\Counterpunch.2013.WEB-DL 720p.mkv
Формат : Matroska
Версия формата : Version 4 / Version 2
Размер файла : 3,21 Гбайт
Продолжительность : 1 ч. 37 м.
Общий поток : 4731 Кбит/сек
Название фильма : [email protected]
Дата кодирования : UTC 2013-05-05 01:01:58
Программа кодирования : mkvmerge v6.1.0 ('Old Devil') built on Mar 2 2013 14:32:37
Библиотека кодирования : libebml v1.3.0 + libmatroska v1.4.0
Видео
Идентификатор : 1
Формат : AVC
Формат/Информация : Advanced Video Codec
Профиль формата : [email protected]
Параметр CABAC формата : Нет
Параметр ReFrames формата : 2 кадра
Идентификатор кодека : V_MPEG4/ISO/AVC
Продолжительность : 1 ч. 37 м.
Битрейт : 3869 Кбит/сек
Ширина : 1280 пикселей
Высота : 528 пикселей
Соотношение сторон : 2,40:1
Частота кадров : 23,976 кадра/сек
Цветовое пространство : YUV
Субдискретизация насыщенности : 4:2:0
Битовая глубина : 8 бит
Тип развёртки : Прогрессивная
Бит/(Пиксели*Кадры) : 0.239
Размер потока : 2,62 Гбайт (82%)
Язык : English
Default : Да
Forced : Нет
Основные цвета : BT.709-5, BT.1361, IEC 61966-2-4, SMPTE RP177
Характеристики трансфера : BT.709-5, BT.1361
Коэффициенты матрицы : BT.709-5, BT.1361, IEC 61966-2-4 709, SMPTE RP177
Аудио #1
Идентификатор : 2
Формат : AC-3
Формат/Информация : Audio Coding 3
Расширение режима : CM (complete main)
Идентификатор кодека : A_AC3
Продолжительность : 1 ч. 37 м.
Вид битрейта : Постоянный
Битрейт : 384 Кбит/сек
Каналы : 6 каналов
Расположение каналов : Front: L C R, Side: L R, LFE
Частота : 48,0 КГц
Битовая глубина : 16 бит
Метод сжатия : С потерями
Размер потока : 267 Мбайт (8%)
Заголовок : VO
Язык : Russian
Default : Да
Forced : Нет
Аудио #2
Идентификатор : 3
Формат : AC-3
Формат/Информация : Audio Coding 3
Расширение режима : CM (complete main)
Идентификатор кодека : A_AC3
Продолжительность : 1 ч. 37 м.
Вид битрейта : Постоянный
Битрейт : 384 Кбит/сек
Каналы : 6 каналов
Расположение каналов : Front: L C R, Side: L R, LFE
Частота : 48,0 КГц
Битовая глубина : 16 бит
Метод сжатия : С потерями
Размер потока : 267 Мбайт (8%)
Заголовок : ENG
Язык : English
Default : Нет
Forced : Нет
Текст
Идентификатор : 4
Формат : UTF-8
Идентификатор кодека : S_TEXT/UTF8
Идентификатор кодека/Информация : UTF-8 Plain Text
Заголовок : Eng Sub
Язык : English
Default : Нет
Forced : Нет
Меню
00:00:00.000 : en:Chapter 1
00:09:02.000 : en:Chapter 2
00:17:36.000 : en:Chapter 3
00:25:58.000 : en:Chapter 4
00:33:56.000 : en:Chapter 5
00:42:19.000 : en:Chapter 6
00:51:47.000 : en:Chapter 7
00:59:25.000 : en:Chapter 8
01:09:28.000 : en:Chapter 9
01:18:35.000 : en:Chapter 10
01:27:33.000 : en:Chapter 11
01:35:51.000 : en:Chapter 12
Не забываем оставлять комментарии к релизу, мне интересно Ваше мнение!
Other forum [Profile] [PM]
Similar theme
Forum Topic Author Torrent Replies Last Post
./templates/default/images/folder_dl.gif Техническая и научно-популярная литература А. В. Белов - Разработка устройств на микроконтроллерах AVR шагаем от "чайника" до профи + CD [2013] [PDF] Omen
1 | 0

0 | 1363

2

2012-12-15 18:39
Omen Latest
./templates/default/images/folder_dl.gif Техническая и научно-популярная литература А.В. Белов - Разработка устройств на микроконтроллерах AVR [2013] [DJVU] Omen
1 | 0

0 | 1124

7

2012-12-15 18:42
Omen Latest
./templates/default/images/folder_dl.gif Техническая и научно-популярная литература М.А.Шустов | Практическая схемотехника. Книга 4. Контроль и защита источников питания [2007] [DJVU] UndegraundMen
1 | 0

0 | 527

1

2013-06-17 03:01
UndegraundMen Latest
./templates/default/images/folder_dl.gif Техническая и научно-популярная литература Э.Парр | Программируемые контроллеры: руководство для инженера [2007] [DJVU] UndegraundMen
1 | 0

0 | 810

7

2013-06-24 03:09
UndegraundMen Latest
./templates/default/images/folder_dl.gif Техническая и научно-популярная литература В.А.Ворона, В.А.Тихонов | Системы контроля и управления доступом [2010] [PDF] UndegraundMen
1 | 0

0 | 450

0

2013-06-25 04:34
UndegraundMen Latest
./templates/default/images/folder_dl.gif Техническая и научно-популярная литература О.И.Николайчук | x51-совместимые микроконтроллеры фирмы Cygnal [2002] [DJVU] UndegraundMen
0 | 1

0 | 480

0

2013-07-07 08:47
UndegraundMen Latest
./templates/default/images/folder_dl.gif Техническая и научно-популярная литература А.В.Евстифеев | Семейство микроконтроллеров MSP430x2xx. Архитектура, программирование, разработка приложений [2010] [PDF] UndegraundMen
1 | 0

0 | 437

0

2013-07-07 18:40
UndegraundMen Latest
./templates/default/images/folder_dl.gif Техническая и научно-популярная литература И.В.Петров | Программируемые контроллеры. Стандартные языки и приемы прикладного проектирования [2004] [PDF] UndegraundMen
1 | 0

0 | 747

2

2013-07-08 23:00
UndegraundMen Latest
./templates/default/images/folder_dl.gif Техническая и научно-популярная литература Майкл Бич, Дэвид Гринхилл | Микроконтроллеры семейства XC166. Вводный курс разработчика [2007] [DJVU] UndegraundMen
0 | 1

0 | 1308

0

2013-07-14 14:04
UndegraundMen Latest
./templates/default/images/folder_dl.gif Техническая и научно-популярная литература И.И.Шагурин | Современные микроконтроллеры и микропроцессоры Motorola: Справочник [2004] [DJVU] UndegraundMen
1 | 0

0 | 1276

0

2013-07-14 19:00
UndegraundMen Latest
Display posts from previous:    
Reply to topic

The time now is: Today 12:36

All times are GMT + 3 Hours



You cannot post new topics in this forum
You cannot reply to topics in this forum
You cannot edit your posts in this forum
You cannot delete your posts in this forum
You cannot vote in polls in this forum
You cannot attach files in this forum
You cannot download files in this forum