Today is a free download without charge Download

Сексуальный злой гений / Sexy Evil Genius (Шон Пиллер / Shawn Piller) [2013, США, фантастика, триллер, драма, комедия, WEB-DL 720p] VO + Original (Eng) + Sub (rus)

Reply to topic
 
Author
Message

Omen ®

Longevity: 8 years 5 months

Posts: 181087

Торрент-статистика

Post 06-May-2013 00:51

[Quote]

Сексуальный злой гений : Sexy Evil Genius Страна: США
Год выпуска: 2013
Жанр: фантастика, триллер, драма, комедия
Продолжительность: 01:30:40
Перевод: Одноголосый закадровый [den904]
русские субтитры: есть-Режиссёр: Шон Пиллер : Shawn Piller
В главных ролях: Сет Грин, Кэти Сакхофф, Уильям Болдуин, Мишель Трахтенберг, Хэролд Перрино, Энтони Майкл, Холл Нора, Киркпатрик Аликс, Гиттер Дерек, Мио Марио Перез-Описание: Группу парней завлекает в один бар в центре Лос-Анджелеса их общая бывшая девушка.- -Качество: WEB-DL 720p
Формат: MKV
Видео кодек: AVC
Аудио кодек: АС3
Видео: 1280x718, 23.976 fps, ~3 845 kbps avg, 0.175 bit/pixel
Аудио #1: 48 kHz, AC3 Dolby Digital, 3/2 (L,C,R,l,r) + LFE ch, ~448 kbps
Аудио #2: 48 kHz, AC3 Dolby Digital, 3/2 (L,C,R,l,r) + LFE ch, ~384 kbps
субтитры: русские
навигация по главам: 12 глав

скриншоты

MediaInfo

Общее
Уникальный идентификатор : 206879654382974414981650121150195090791 (0x9BA39276DA936EE69EB143CE914CC567)
Полное имя : D:\Im\Сексуальный злой гений\Sexy Evil Genius.2013.WEB-DL 720p.mkv
Формат : Matroska
Версия формата : Version 4 / Version 2
Размер файла : 3,02 Гбайт
Продолжительность : 1 ч. 30 м.
Общий поток : 4772 Кбит/сек
Название фильма : [email protected]
Дата кодирования : UTC 2013-05-05 13:36:02
Программа кодирования : mkvmerge v6.1.0 ('Old Devil') built on Mar 2 2013 14:32:37
Библиотека кодирования : libebml v1.3.0 + libmatroska v1.4.0
Видео
Идентификатор : 1
Формат : AVC
Формат/Информация : Advanced Video Codec
Профиль формата : [email protected]
Параметр CABAC формата : Нет
Параметр ReFrames формата : 2 кадра
Идентификатор кодека : V_MPEG4/ISO/AVC
Продолжительность : 1 ч. 30 м.
Битрейт : 3845 Кбит/сек
Ширина : 1280 пикселей
Высота : 718 пикселей
Соотношение сторон : 16:9
Частота кадров : 23,976 кадра/сек
Цветовое пространство : YUV
Субдискретизация насыщенности : 4:2:0
Битовая глубина : 8 бит
Тип развёртки : Прогрессивная
Бит/(Пиксели*Кадры) : 0.175
Размер потока : 2,44 Гбайт (81%)
Язык : English
Default : Да
Forced : Нет
Основные цвета : BT.709-5, BT.1361, IEC 61966-2-4, SMPTE RP177
Характеристики трансфера : BT.709-5, BT.1361
Коэффициенты матрицы : BT.709-5, BT.1361, IEC 61966-2-4 709, SMPTE RP177
Аудио #1
Идентификатор : 2
Формат : AC-3
Формат/Информация : Audio Coding 3
Расширение режима : CM (complete main)
Идентификатор кодека : A_AC3
Продолжительность : 1 ч. 30 м.
Вид битрейта : Постоянный
Битрейт : 448 Кбит/сек
Каналы : 6 каналов
Расположение каналов : Front: L C R, Side: L R, LFE
Частота : 48,0 КГц
Битовая глубина : 16 бит
Метод сжатия : С потерями
Размер потока : 291 Мбайт (9%)
Заголовок : VO [den904]
Язык : Russian
Default : Да
Forced : Нет
Аудио #2
Идентификатор : 3
Формат : AC-3
Формат/Информация : Audio Coding 3
Расширение режима : CM (complete main)
Идентификатор кодека : A_AC3
Продолжительность : 1 ч. 30 м.
Вид битрейта : Постоянный
Битрейт : 384 Кбит/сек
Каналы : 6 каналов
Расположение каналов : Front: L C R, Side: L R, LFE
Частота : 48,0 КГц
Битовая глубина : 16 бит
Метод сжатия : С потерями
Размер потока : 249 Мбайт (8%)
Заголовок : ENG
Язык : English
Default : Нет
Forced : Нет
Текст
Идентификатор : 4
Формат : UTF-8
Идентификатор кодека : S_TEXT/UTF8
Идентификатор кодека/Информация : UTF-8 Plain Text
Заголовок : Eng Sub
Язык : English
Default : Нет
Forced : Нет
Меню
00:00:00.000 : en:Chapter 1
00:02:52.000 : en:Chapter 2
00:13:02.000 : en:Chapter 3
00:21:40.000 : en:Chapter 4
00:29:48.000 : en:Chapter 5
00:38:21.000 : en:Chapter 6
00:45:35.000 : en:Chapter 7
00:56:04.000 : en:Chapter 8
01:03:50.000 : en:Chapter 9
01:14:40.000 : en:Chapter 10
01:20:54.000 : en:Chapter 11
01:27:31.000 : en:Chapter 12
Не забываем оставлять комментарии к релизу, мне интересно Ваше мнение!
Other forum [Profile] [PM]
Display posts from previous:    
Reply to topic

The time now is: Today 11:09

All times are GMT + 3 Hours



You cannot post new topics in this forum
You cannot reply to topics in this forum
You cannot edit your posts in this forum
You cannot delete your posts in this forum
You cannot vote in polls in this forum
You cannot attach files in this forum
You cannot download files in this forum