Today is a free download without charge Download

Alanis Morissette - Live in Rio de Janeiro [2013, Pop/Rock, HDTV 720p]

Reply to topic
 
Author
Message

Omen ®

Longevity: 8 years 4 months

Posts: 181087

Торрент-статистика

Post 06-May-2013 00:51

[Quote]

Alanis Morissette - Live in Rio de Janeiro
Жанр: Pop/Rock
Продолжительность: 01:35:08
Год выпуска: 2013
Описание:
Live at Citibank Hall, Rio de Janeiro
September 7, 2012.
Set List:
01. I Remain
02. Woman Down
03. All I Really Want
04. You Learn
05. Guardian
06. Flinch
07. Right Through You
08. Hands Clean
09. So Pure
10. Celebrity
11. Ironic
12. Havoc
13. Head Over Feet
14. I Remain
15. Lens
16. You Oughta Know
17. Numb
18. Hand in my Pocket
19. Uninvited
20. Thank U
Качество: HDTV 720p
Контейнер: MKV
Видео кодек: H.264
Аудио кодек: AC3
Видео: H.264 1280x720 16:9 6386Kbps 29.970fps
Аудио: AC3 384kbps 48kHz 2.0ch

Отчёт MediaInfo / BDInfo

ОбщееУникальный идентификатор : 246219732271655784503117827136049185251 (0xB93C320E2126B547A20FDD55239901E3)Полное имя : E:\Downloads\Alanis.Morissette.Live.in.Rio.de.Janeiro.720p.HDTV.x264-FHx.mkvФормат : MatroskaВерсия формата : Version 2Размер файла : 4,24 ГбайтПродолжительность : 1 ч. 35 м.Общий поток : 6386 Кбит/секДата кодирования : UTC 2013-04-28 08:57:01Программа кодирования : mkvmerge v6.1.0 ('Old Devil') built on Mar 2 2013 14:32:37Библиотека кодирования : libebml v1.3.0 + libmatroska v1.4.0
ВидеоИдентификатор : 1Формат : AVCФормат/Информация : Advanced Video CodecПрофиль формата : [email protected]Параметр CABAC формата : ДаПараметр ReFrames формата : 9 кадровИдентификатор кодека : V_MPEG4/ISO/AVCПродолжительность : 1 ч. 35 м.Битрейт : 6000 Кбит/секШирина : 1280 пикселейВысота : 720 пикселейСоотношение сторон : 16:9Режим частоты кадров : ПостоянныйЧастота кадров : 29,970 кадров/секЦветовое пространство : YUVСубдискретизация насыщенности : 4:2:0Битовая глубина : 8 битТип развёртки : ПрогрессивнаяБит/(Пиксели*Кадры) : 0.217Размер потока : 3,90 Гбайт (92%)Библиотека кодирования : x264 core 130 r2273 b3065e6Настройки программы : cabac=1 / ref=9 / deblock=1:0:0 / analyse=0x3:0x133 / me=umh / subme=9 / psy=1 / psy_rd=1.00:0.00 / mixed_ref=1 / me_range=24 / chroma_me=1 / trellis=1 / 8x8dct=1 / cqm=0 / deadzone=21,11 / fast_pskip=1 / chroma_qp_offset=-2 / threads=12 / lookahead_threads=1 / sliced_threads=0 / nr=0 / decimate=1 / interlaced=0 / bluray_compat=0 / constrained_intra=0 / bframes=5 / b_pyramid=2 / b_adapt=1 / b_bias=0 / direct=1 / weightb=1 / open_gop=0 / weightp=2 / keyint=300 / keyint_min=29 / scenecut=40 / intra_refresh=0 / rc_lookahead=150 / rc=2pass / mbtree=1 / bitrate=6000 / ratetol=1.0 / qcomp=0.60 / qpmin=0 / qpmax=69 / qpstep=4 / cplxblur=20.0 / qblur=0.5 / vbv_maxrate=30000 / vbv_bufsize=35000 / nal_hrd=none / ip_ratio=1.40 / aq=1:1.00Default : ДаForced : Нет
АудиоИдентификатор : 2Формат : AC-3Формат/Информация : Audio Coding 3Расширение режима : CM (complete main)Параметр Endianness формата : BigИдентификатор кодека : A_AC3Продолжительность : 1 ч. 35 м.Вид битрейта : ПостоянныйБитрейт : 384 Кбит/секКаналы : 2 каналаРасположение каналов : Front: L RЧастота : 48,0 КГцБитовая глубина : 16 битМетод сжатия : С потерямиРазмер потока : 261 Мбайт (6%)Default : ДаForced : Нет

Скриншоты



Other forum [Profile] [PM]
Display posts from previous:    
Reply to topic

The time now is: Today 16:11

All times are GMT + 3 Hours



You cannot post new topics in this forum
You cannot reply to topics in this forum
You cannot edit your posts in this forum
You cannot delete your posts in this forum
You cannot vote in polls in this forum
You cannot attach files in this forum
You cannot download files in this forum