Today is a free download without charge Download

Риддл / Riddle (Джон О. Хартман / John O. Hartman, Николас Мросс / Nicholas Mross) [2013, США, триллер, WEB-DL 720p]

Reply to topic
 
Author
Message

Omen ®

Longevity: 8 years 5 months

Posts: 181087

Торрент-статистика

Post 05-May-2013 16:43

[Quote]

Риддл / Riddle-

Название: Риддл
Оригинальное название: Riddle
Год выпуска: 2013
Страна: США / DARONIMAX Media
Жанр: триллер
Продолжительность: 01:39:40
Перевод: Любительское (многоголосое) [DeadSno & den904] - перевод на русский язык [Janetta] - работа со звуком [Bane]
Субтитры: English
Режиссер: Джон О. Хартман, Николас Мросс
Сценарий: Джон О. Хартман, Николас Мросс, Брайан Хартман
Продюсер: Брайан Хартман, Филлип Глассер, Энни Лоффлер
Оператор: Джефф Гартон
Композитор: Скотт Глазгоу
Художник: Ленди Ли, Дайан Коллинз, Смит Харпер Хатчингс
В ролях: Элизабет Арнуа / Elisabeth Harnois (Holly Teller), Вэл Килмер / Val Kilmer (Sheriff Richards), Диора Бэрд / Diora Baird (Amber Richards), Уильям Сэдлер / William Sadler (Western Man / Jack Abel), Райан Малгарини / Ryan Malgarini (Nathan Teller), Брайан Лиллис / Bryan Lillis (Matt Caldwell), Бен Бледсо / Ben Bledsoe (Cameron Bronson), Джэк Эрди / Jack Erdie (Disheveled Man / Gene Bristol), Рик Эпплгейт / Rick Applegate (Mr. Blackburn),Тимоти Бреслин / Timothy Breslin (Hospital Administrator)
Описание: Молодая девушка Холли Теллер попадает в город Риддл, пытаясь найти своего пропавшего брата. Когда шериф города отказывается продолжать поиски мальчика, Холли пытается самостоятельно разгадать тайну его исчезновения и понять, что связывает его с заброшенной психиатрической лечебницей. То, что предстоит узнать Холли, навсегда изменит ее жизнь.
Бюджет: $7 000 000
Премьера (мир): 10 января 2013, ...
Рейтинг MPAA: Детям до 13 лет просмотр не желателен-- --
Качество: WEB-DLRip 720p
Формат: MKV
Видео кодек: AVC
Аудио кодеk: AC3
Видео: 1280x716 (16:9), 23.976 fps, AVC, 3 987 Kbps
Аудио: Аудио #1: AC3, 384 Kbps, 48.0 KHz, 6 ch || Аудио #2: AC3, 384 Kbps, 48.0 KHz, 6 ch

МедиаИнфо

Код:
General
Complete name                    : Риддл_Riddle.720p.mkv
Format                           : Matroska
File size                        : 3.38 GiB
Duration                         : 1h 39mn
Overall bit rate                 : 4 852 Kbps
Movie name                       : [email protected]
Encoded date                     : UTC 2013-03-13 15:06:55
Writing application              : mkvmerge v6.1.0 ('Old Devil') built on Mar  2 2013 14:32:37
Writing library                  : libebml v1.3.0 + libmatroska v1.4.0
Video
ID                               : 1
Format                           : AVC
Format/Info                      : Advanced Video Codec
Format profile                   : [email protected]
Format settings, CABAC           : No
Format settings, ReFrames        : 2 frames
Muxing mode                      : Container [email protected]
Codec ID                         : V_MPEG4/ISO/AVC
Duration                         : 1h 39mn
Bit rate                         : 3 987 Kbps
Width                            : 1 280 pixels
Height                           : 716 pixels
Display aspect ratio             : 16:9
Frame rate                       : 23.976 fps
Color space                      : YUV
Chroma subsampling               : 4:2:0
Bit depth                        : 8 bits
Scan type                        : Progressive
Bits/(Pixel*Frame)               : 0.181
Stream size                      : 2.78 GiB (82%)
Title                            : [email protected]
Color primaries                  : BT.709-5, BT.1361, IEC 61966-2-4, SMPTE RP177
Transfer characteristics         : BT.709-5, BT.1361
Matrix coefficients              : BT.709-5, BT.1361, IEC 61966-2-4 709, SMPTE RP177
Audio #1
ID                               : 2
Format                           : AC-3
Format/Info                      : Audio Coding 3
Mode extension                   : CM (complete main)
Codec ID                         : A_AC3
Duration                         : 1h 39mn
Bit rate mode                    : Constant
Bit rate                         : 384 Kbps
Channel(s)                       : 6 channels
Channel positions                : Front: L C R, Side: L R, LFE
Sampling rate                    : 48.0 KHz
Bit depth                        : 16 bits
Stream size                      : 274 MiB (8%)
Language                         : Russian
Audio #2
ID                               : 3
Format                           : AC-3
Format/Info                      : Audio Coding 3
Mode extension                   : CM (complete main)
Codec ID                         : A_AC3
Duration                         : 1h 39mn
Bit rate mode                    : Constant
Bit rate                         : 384 Kbps
Channel(s)                       : 6 channels
Channel positions                : Front: L C R, Side: L R, LFE
Sampling rate                    : 48.0 KHz
Bit depth                        : 16 bits
Stream size                      : 274 MiB (8%)
Text
ID                               : 4
Format                           : UTF-8
Codec ID                         : S_TEXT/UTF8
Codec ID/Info                    : UTF-8 Plain Text
Menu
00:00:00.000                     : en:School
00:08:28.000                     : en:Chicken
00:16:21.000                     : en:Missing
00:24:37.000                     : en:Police Station
00:31:55.000                     : en:Need A Drink
00:39:20.000                     : en:One Of Us
00:48:28.000                     : en:Secrets
00:56:41.000                     : en:Talk About It
01:04:43.000                     : en:Searching
01:14:07.000                     : en:Riddle Sanitorium
01:24:16.000                     : en:She Wasn't Lying
01:33:42.000                     : en:End Credits

Скриншот с названием фильма:

Скриншоты:

Other forum [Profile] [PM]
Display posts from previous:    
Reply to topic

The time now is: Today 12:26

All times are GMT + 3 Hours



You cannot post new topics in this forum
You cannot reply to topics in this forum
You cannot edit your posts in this forum
You cannot delete your posts in this forum
You cannot vote in polls in this forum
You cannot attach files in this forum
You cannot download files in this forum