Today is a free download without charge Download

Соловей-разбойник (Егор Баранов) [2012, боевик, комедия, криминал, BDRip 720p]

Reply to topic
 
Author
Message

Omen ®

Longevity: 8 years 10 months

Posts: 181086

Торрент-статистика

Post 05-May-2013 16:43

[Quote]

Соловей-разбойник
Страна: Россия
Студия: Studio Ortodoks
Жанр: боевик, комедия, криминал
Год выпуска: 2012
Продолжительность: 01:31:39
Субтитры: нет
Навигация по главам: есть
Режиссер: Егор Баранов
В ролях: Иван Охлобыстин, Евгений Стычкин, Оксана Фандера, Игорь Жижикин, Сергей Бадюк, Александр Стриженов, Павел Прилучный, Мария Голубкина, Александр Сухинин, Михаил Горевой
Описание: История о дерзком романтике Соловьёве Севастьяне Григорьевиче, cтупившем по зову крови на лихую стезю русского разбоя. И пока спецслужбы во главе с секретным агентом Н7 пытаются ликвидировать банду Соловья-Разбойника, он, со свойственным ему драйвом и озорством, восстанавливает в родном краю справедливость. Но рано или поздно любой «сказке» приходит конец….

Релиз: fanatus
Качество видео: BDRip 720p
Исходник: Blu-Ray (Rus)
Контейнер: MKV
Видео: MPEG-4 AVC, 5177 kbps, 1280x544 (2.35:1), 24.000 fps, 0.310 bit/pixel
Аудио: AC3, 6 ch, 48 kHz, 640 kbps

MediaInfo

General
Unique ID : 181633906397706479555229329887542915902 (0x88A56AFD1D962359B8C291E3108C333E)
Complete name : D:\Solovej-razbojnik.2012.x264.BDRip.720p.fanatus.mkv
Format : Matroska
Format version : Version 2
File size : 3.72 GiB
Duration : 1h 31mn
Overall bit rate : 5 816 Kbps
Movie name : Solovey-Razboynik (2012) - fanatus
Encoded date : UTC 2013-05-05 11:19:48
Writing application : mkvmerge v3.4.0 ('Rapunzel') сборка от May 15 2010 09:38:20
Writing library : libebml v0.8.0 + libmatroska v0.9.0
Video
ID : 1
Format : AVC
Format/Info : Advanced Video Codec
Format profile : [email protected]
Format settings, CABAC : Yes
Format settings, ReFrames : 10 frames
Codec ID : V_MPEG4/ISO/AVC
Duration : 1h 31mn
Bit rate : 5 177 Kbps
Width : 1 280 pixels
Height : 544 pixels
Display aspect ratio : 2.35:1
Frame rate : 24.000 fps
Color space : YUV
Chroma subsampling : 4:2:0
Bit depth : 8 bits
Scan type : Progressive
Bits/(Pixel*Frame) : 0.310
Stream size : 3.24 GiB (87%)
Title : Solovey-Razboynik (2012)
Writing library : x264 core 132 r2309 3b1f1f7
Encoding settings : cabac=1 / ref=10 / deblock=1:-3:-3 / analyse=0x3:0x113 / me=tesa / subme=11 / psy=1 / psy_rd=0.95:0.00 / mixed_ref=1 / me_range=48 / chroma_me=1 / trellis=2 / 8x8dct=1 / cqm=0 / deadzone=21,11 / fast_pskip=0 / chroma_qp_offset=-2 / threads=16 / lookahead_threads=4 / sliced_threads=0 / nr=0 / decimate=0 / interlaced=0 / bluray_compat=0 / constrained_intra=0 / bframes=11 / b_pyramid=2 / b_adapt=2 / b_bias=0 / direct=3 / weightb=1 / open_gop=0 / weightp=2 / keyint=240 / keyint_min=24 / scenecut=40 / intra_refresh=0 / rc_lookahead=240 / rc=2pass / mbtree=0 / bitrate=5177 / ratetol=1.0 / qcomp=0.75 / qpmin=0 / qpmax=69 / qpstep=4 / cplxblur=20.0 / qblur=0.5 / vbv_maxrate=50000 / vbv_bufsize=62500 / nal_hrd=none / ip_ratio=1.40 / pb_ratio=1.30 / aq=1:0.90
Language : Russian
Default : Yes
Forced : No
Color primaries : BT.709-5, BT.1361, IEC 61966-2-4, SMPTE RP177
Transfer characteristics : BT.709-5, BT.1361
Matrix coefficients : BT.709-5, BT.1361, IEC 61966-2-4 709, SMPTE RP177
Audio
ID : 2
Format : AC-3
Format/Info : Audio Coding 3
Mode extension : CM (complete main)
Format settings, Endianness : Big
Codec ID : A_AC3
Duration : 1h 31mn
Bit rate mode : Constant
Bit rate : 640 Kbps
Channel(s) : 6 channels
Channel positions : Front: L C R, Side: L R, LFE
Sampling rate : 48.0 KHz
Bit depth : 16 bits
Compression mode : Lossy
Stream size : 420 MiB (11%)
Title : Original
Language : Russian
Default : Yes
Forced : No
Menu
00:00:00.000 : :Chapter 01
00:06:16.125 : :Chapter 02
00:15:28.791 : :Chapter 03
00:27:35.041 : :Chapter 04
00:39:01.208 : :Chapter 05
00:49:36.791 : :Chapter 06
00:56:01.041 : :Chapter 07
01:01:00.875 : :Chapter 08
01:04:10.916 : :Chapter 09
01:13:11.833 : :Chapter 10
01:17:37.291 : :Chapter 11
01:27:16.208 : :Chapter 12
01:31:39.125 : :Chapter 13

x264 [info]

---[NoImage] raw [info]: 1280x544p 1:1 @ 24/1 fps (cfr)
---[NoImage] x264 [info]: using SAR=1/1
---[NoImage] x264 [info]: using cpu capabilities: MMX2 SSE2Fast SSSE3 SSE4.2 AVX
---[NoImage] x264 [info]: profile High, level 4.1
---[NoImage]
---[NoImage] x264 [info]: frame I:1079 Avg QP:14.65 size:122870
---[NoImage] x264 [info]: frame P:30496 Avg QP:17.39 size: 51232
---[NoImage] x264 [info]: frame B:100406 Avg QP:18.88 size: 18539
---[NoImage] x264 [info]: consecutive B-frames: 3.5% 3.5% 8.2% 21.8% 16.8% 34.2% 5.3% 1.3% 2.0% 0.7% 0.9% 1.7%
---[NoImage] x264 [info]: mb I I16..4: 5.1% 76.6% 18.3%
---[NoImage] x264 [info]: mb P I16..4: 0.9% 15.5% 1.6% P16..4: 26.7% 33.7% 17.5% 0.0% 0.0% skip: 4.2%
---[NoImage] x264 [info]: mb B I16..4: 0.1% 1.5% 0.1% B16..8: 31.6% 23.8% 6.9% direct: 7.4% skip:28.5% L0:43.8% L1:40.6% BI:15.5%
---[NoImage] x264 [info]: 8x8 transform intra:85.4% inter:57.6%
---[NoImage] x264 [info]: direct mvs spatial:97.1% temporal:2.9%
---[NoImage] x264 [info]: coded y,uvDC,uvAC intra: 92.2% 90.8% 81.3% inter: 36.7% 34.6% 17.1%
---[NoImage] x264 [info]: i16 v,h,dc,p: 44% 19% 6% 31%
---[NoImage] x264 [info]: i8 v,h,dc,ddl,ddr,vr,hd,vl,hu: 9% 8% 9% 10% 13% 13% 13% 12% 14%
---[NoImage] x264 [info]: i4 v,h,dc,ddl,ddr,vr,hd,vl,hu: 10% 8% 6% 9% 15% 14% 13% 11% 13%
---[NoImage] x264 [info]: i8c dc,h,v,p: 44% 20% 17% 19%
---[NoImage] x264 [info]: Weighted P-Frames: Y:2.7% UV:1.8%
---[NoImage] x264 [info]: ref P L0: 44.0% 11.1% 17.9% 6.8% 6.0% 4.0% 3.9% 2.1% 2.1% 1.8% 0.3% 0.0%
---[NoImage] x264 [info]: ref B L0: 69.7% 13.0% 6.6% 3.5% 2.5% 2.1% 1.6% 0.7% 0.3%
---[NoImage] x264 [info]: ref B L1: 92.4% 7.6%
---[NoImage] x264 [info]: kb/s:5173.67
---[NoImage] encoded 131981 frames, 1.95 fps, 5173.67 kb/s

Скриншот c названием фильма

Скриншоты

Other forum [Profile] [PM]
Display posts from previous:    
Reply to topic

The time now is: Today 13:08

All times are GMT + 3 Hours



You cannot post new topics in this forum
You cannot reply to topics in this forum
You cannot edit your posts in this forum
You cannot delete your posts in this forum
You cannot vote in polls in this forum
You cannot attach files in this forum
You cannot download files in this forum