Today is a free download without charge Download

Проклятие моей матери / The Guilt Trip (Энн Флетчер / Anne Fletcher) [2012, США, комедия, BDRip 720p] DVO (Сладкая парочка) + Original (Eng) + Sub (Eng)

Reply to topic
 
Author
Message

Omen ®

Longevity: 8 years 5 months

Posts: 181087

Торрент-статистика

Post 05-May-2013 12:39

[Quote]

Проклятие моей матери / The Guilt Trip Страна: США
Студия: Paramount Pictures (presents), Skydance Productions (presents), ...
Жанр: комедия
Год выпуска: 2012
Продолжительность: 01:35:37
Перевод:Любительский (двухголосый закадровый) Сладкая парочка
Cубтитры: английские
Оригинальная аудиодорожка: английский
Режиссер: Энн Флетчер / Anne Fletcher
В ролях: Барбра Стрейзанд, Сет Роген, Джулин Рени, Забрина Гевара, Джон Фанк, Роберт Кертис-Браун, Кэти Нэджими, Мириам Маргулис, Роуз Абду, Том Вирту
Описание:
Главный герой изобрел новое чистящее средство и просит мать отправиться с ним в рекламную кампанию по стране. Но на самом деле его цель иная — соединить сердца матери и мужчины, в которого она была влюблена в молодости. Мама согласилась по похожей причине — она винит себя в неудачах сына на любовном фронте и берется во время путешествия исправить дело.
- -Тип релиза: BDRip 720p (рип от ThD)
Контейнер: MKV
Видео: AVC (x264), 1280x694 (1,85:1) at 23,976 fps, 3915 Кbps, 0.184 bpp
Аудио 1: AC3; 384 Kbps; CBR; 6 ch; 48 khz | DVO - Сладкая парочка |
Аудио 2: DTS; 1536 Kbps; CBR; 6 ch; 48 khz; 24 bit | Английский |
Формат субтитров: softsub (SRT)

Скриншоты || x264 Info || MediaInfo || Notes

Notes:

Цитата:
  • Аудио дорожка №1 взята с этой раздачи, thx: андр64, она была дутая по битрейту c 384 до 448: спектр левого канала

MediaInfo

Код:
Общее
Уникальный идентификатор                 : 250358531053736094614515204385197467551 (0xBC594C96FD599FBAB3AA3B7D7F03279F)
Полное имя                               : Проклятие моей матери.2012.DVO.720p.BluRay.x264-ThD.mkv
Формат                                   : Matroska
Версия формата                           : Version 4 / Version 2
Размер файла                             : 4,25 Гбайт
Продолжительность                        : 1 ч. 35 м.
Общий поток                              : 6369 Кбит/сек
Название фильма                          : profile.php?mode=viewprofile&u=22488948
Дата кодирования                         : UTC 2013-05-05 08:26:01
Программа кодирования                    : mkvmerge v6.2.0 ('Promised Land') built on Apr 28 2013 12:22:01
Библиотека кодирования                   : libebml v1.3.0 + libmatroska v1.4.0
Видео
Идентификатор                            : 1
Формат                                   : AVC
Формат/Информация                        : Advanced Video Codec
Профиль формата                          : [email protected]
Параметр CABAC формата                   : Да
Параметр ReFrames формата                : 12 кадров
Идентификатор кодека                     : V_MPEG4/ISO/AVC
Продолжительность                        : 1 ч. 35 м.
Битрейт                                  : 4349 Кбит/сек
Ширина                                   : 1280 пикселей
Высота                                   : 544 пикселя
Соотношение сторон                       : 2,35:1
Режим частоты кадров                     : Постоянный
Частота кадров                           : 23,976 кадра/сек
Цветовое пространство                    : YUV
Субдискретизация насыщенности            : 4:2:0
Битовая глубина                          : 8 бит
Тип развёртки                            : Прогрессивная
Бит/(Пиксели*Кадры)                      : 0.261
Размер потока                            : 2,91 Гбайт (68%)
Библиотека кодирования                   : x264 core 128 r2216kMod 198a7ea
Настройки программы                      : cabac=1 / ref=12 / deblock=1:-3:-3 / analyse=0x3:0x133 / me=umh / subme=9 / psy=1 / fade_compensate=0.00 / psy_rd=1.10:0.00 / mixed_ref=1 / me_range=64 / chroma_me=1 / trellis=2 / 8x8dct=1 / cqm=0 / deadzone=21,11 / fast_pskip=0 / chroma_qp_offset=-2 / threads=12 / lookahead_threads=2 / sliced_threads=0 / nr=0 / decimate=0 / interlaced=0 / bluray_compat=0 / constrained_intra=0 / bframes=8 / b_pyramid=2 / b_adapt=2 / b_bias=0 / direct=3 / weightb=1 / open_gop=0 / weightp=2 / keyint=250 / keyint_min=23 / scenecut=40 / intra_refresh=0 / rc=crf / mbtree=0 / crf=18.0000 / qcomp=0.85 / qpmin=0 / qpmax=69 / qpstep=4 / ip_ratio=1.30 / pb_ratio=1.25 / aq=2:0.90
Язык                                     : English
Default                                  : Да
Forced                                   : Нет
Аудио #1
Идентификатор                            : 2
Формат                                   : AC-3
Формат/Информация                        : Audio Coding 3
Расширение режима                        : CM (complete main)
Параметр Endianness формата              : Big
Идентификатор кодека                     : A_AC3
Продолжительность                        : 1 ч. 35 м.
Вид битрейта                             : Постоянный
Битрейт                                  : 384 Кбит/сек
Каналы                                   : 6 каналов
Расположение каналов                     : Front: L C R, Side: L R, LFE
Частота                                  : 48,0 КГц
Битовая глубина                          : 16 бит
Метод сжатия                             : С потерями
Размер потока                            : 263 Мбайт (6%)
Заголовок                                : DVO [Сладкая парочка]
Язык                                     : Russian
Default                                  : Да
Forced                                   : Нет
Аудио #2
Идентификатор                            : 3
Формат                                   : DTS
Формат/Информация                        : Digital Theater Systems
Режим                                    : 16
Параметр Endianness формата              : Big
Идентификатор кодека                     : A_DTS
Продолжительность                        : 1 ч. 35 м.
Вид битрейта                             : Постоянный
Битрейт                                  : 1509 Кбит/сек
Каналы                                   : 6 каналов
Расположение каналов                     : Front: L C R, Side: L R, LFE
Частота                                  : 48,0 КГц
Битовая глубина                          : 24 бит
Метод сжатия                             : С потерями
Размер потока                            : 1,01 Гбайт (24%)
Язык                                     : English
Default                                  : Нет
Forced                                   : Нет
Текст
Идентификатор                            : 4
Формат                                   : UTF-8
Идентификатор кодека                     : S_TEXT/UTF8
Идентификатор кодека/Информация          : UTF-8 Plain Text
Язык                                     : English
Default                                  : Нет
Forced                                   : Нет
Меню
00:00:00.000                             : en:Chapter 1
00:07:42.295                             : en:Chapter 2
00:10:35.593                             : en:Chapter 3
00:18:20.933                             : en:Chapter 4
00:26:03.312                             : en:Chapter 5
00:34:55.135                             : en:Chapter 6
00:42:56.574                             : en:Chapter 7
00:47:22.631                             : en:Chapter 8
00:52:52.044                             : en:Chapter 9
01:05:48.903                             : en:Chapter 10
01:09:15.902                             : en:Chapter 11
01:14:31.884                             : en:Chapter 12
01:20:56.518                             : en:Chapter 13
01:28:23.215                             : en:Chapter 14

x264 Info

frame I:1214 Avg QP:15.79 size: 96566
frame P:26714 Avg QP:16.85 size: 45312
frame B:109640 Avg QP:18.52 size: 17152
consecutive B-frames: 1.3% 1.7% 3.5% 17.2% 19.5% 37.0% 9.4% 7.5% 2.9%

Source vs Encode

DON......vs.......HDWinG


Other forum [Profile] [PM]
Display posts from previous:    
Reply to topic

The time now is: Today 10:56

All times are GMT + 3 Hours



You cannot post new topics in this forum
You cannot reply to topics in this forum
You cannot edit your posts in this forum
You cannot delete your posts in this forum
You cannot vote in polls in this forum
You cannot attach files in this forum
You cannot download files in this forum