Today is a free download without charge Download

Правила виноделов / The Cider House Rules (Лассе Халльстрём) [1999, драма, мелодрама, BDRip 1080p]

Reply to topic
 
Author
Message

Delia ®

Gender:

Longevity: 10 years

Posts: 1821

Торрент-статистика

Post 05-May-2013 11:44

[Quote]

- Правила виноделов
The Cider House Rules«A story about how far we must travel to find the place where we belong.»--
Год выпуска: 1999
Страна: США
Жанр: драма, мелодрама
Продолжительность: 02:05:17
Перевод: Профессиональный (дублированный)
Субтитры: Russian , English , English(SDH) (srt)
Режиссер: Лассе Халльстрём
Сценарий: Джон Ирвинг
Продюсер: Ричард Н. Гладштейн, Алан С. Бломквист, Бобби Коэн, ...
Оператор: Оливер Степлтон
Композитор: Рэйчел Портман
Художник: Дэвид Гропмэн, Карен Шульц Гропмэн, Рени Эрлих Калфус, ...
Монтаж: Лиза Зено Чургин

В ролях: Тоби Магуайр / Tobey Maguire (Homer Wells), Шарлиз Терон / Charlize Theron (Candy Kendall), Делрой Линдо / Delroy Lindo (Arthur Rose), Пол Радд / Paul Rudd (Lt. Wally Worthington), Майкл Кейн / Michael Caine (Dr. Wilbur Larch), Джейн Александр / Jane Alexander (Nurse Edna), Кэти Бейкер / Kathy Baker (Nurse Angela), Эрика Баду / Erykah Badu (Rose Rose), Киран Калкин / Kieran Culkin (Buster), Кейт Неллиган / Kate Nelligan (Olive Worthington)
Описание: 40-е годы. Где-то далеко идет война, а в сиротском приюте Сент-Клауд, возглавляемом доктором Ларчем, решаются другие человеческие проблемы. Гомер Уэллс вырос в приюте и никогда еще не покидал его пределов. Зато преуспел в акушерстве, ассистируя доктору Ларчу.Именно здесь Гомер знакомится с Кэнди и ее возлюбленным, уезжающим на фронт. С ними он впервые покидает Сент-Клауд, чтобы узнать другую жизнь, о которой пока только мечтал…
-- Бюджет: $24 000 000
Сборы в США: $57 545 092
Сборы в мире: + $31 000 000 = $88 545 092
Зрители: США 10.7 млн , Испания 1.58 млн , Германия 1.1 млн
Премьера (мир): 7 сентября 1999, ...
Премьера (РФ): 29 июня 2000
Релиз на DVD: 13 февраля 2001, «West Video», ...
-
Рейтинг MPAA: Детям до 13 лет просмотр не желателен
Рейтинг ВКИП: запрещено для детей-Релиз группы: -
Качество: BDRip
Формат: MKV
Видео кодек: H.264 (AVC)
Аудио кодеk: AC3
Видео: 1920x818 (2.35:1), 23.976 fps, AVC, 8 253 Kbps
Аудио#1: AC3, 384 Kbps, 48.0 KHz, 6 ch RUS Dub
Аудио #2: AC3, 448 Kbps, 48.0 KHz, 5 ch ENG

--

МедиаИнфо

Код:
General
Unique ID                                : 234808464611105087124746308367005617236 (0xB0A6771F2591D3C29A880C5DF2158C54)
Complete name                            : The Cider House Rules(1999)1080p.F-HD.mkv
Format                                   : Matroska
Format version                           : Version 4 / Version 2
File size                                : 7.95 GiB
Duration                                 : 2h 5mn
Overall bit rate                         : 9 084 Kbps
Movie name                               : FREEISLAND
Encoded date                             : UTC 2013-05-05 06:51:03
Writing application                      : mkvmerge v6.2.0 ('Promised Land') built on Apr 28 2013 12:22:01
Writing library                          : libebml v1.3.0 + libmatroska v1.4.0
Video
ID                                       : 1
Format                                   : AVC
Format/Info                              : Advanced Video Codec
Format profile                           : [email protected]
Format settings, CABAC                   : Yes
Format settings, ReFrames                : 4 frames
Codec ID                                 : V_MPEG4/ISO/AVC
Duration                                 : 2h 5mn
Bit rate                                 : 8 253 Kbps
Width                                    : 1 920 pixels
Height                                   : 818 pixels
Display aspect ratio                     : 2.35:1
Frame rate mode                          : Constant
Frame rate                               : 23.976 fps
Color space                              : YUV
Chroma subsampling                       : 4:2:0
Bit depth                                : 8 bits
Scan type                                : Progressive
Bits/(Pixel*Frame)                       : 0.219
Stream size                              : 7.06 GiB (89%)
Writing library                          : x264 core 132 r2309kMod 3b1f1f7
Encoding settings                        : cabac=1 / ref=4 / deblock=1:-3:-3 / analyse=0x3:0x113 / me=umh / subme=11 / psy=1 / fade_compensate=0.00 / psy_rd=0.90:0.05 / mixed_ref=1 / me_range=48 / chroma_me=1 / trellis=2 / 8x8dct=1 / cqm=0 / deadzone=21,11 / fast_pskip=0 / chroma_qp_offset=-3 / threads=6 / lookahead_threads=1 / sliced_threads=0 / nr=0 / decimate=1 / interlaced=0 / bluray_compat=0 / constrained_intra=0 / bframes=9 / b_pyramid=2 / b_adapt=2 / b_bias=0 / direct=3 / weightb=1 / open_gop=0 / weightp=2 / keyint=250 / keyint_min=23 / scenecut=40 / intra_refresh=0 / rc_lookahead=40 / rc=2pass / mbtree=0 / bitrate=8253 / ratetol=1.0 / qcomp=0.75 / qpmin=0 / qpmax=69 / qpstep=4 / cplxblur=20.0 / qblur=0.5 / vbv_maxrate=50000 / vbv_bufsize=62500 / nal_hrd=none / ip_ratio=1.40 / pb_ratio=1.30 / aq=1:0.80
Language                                 : English
Default                                  : Yes
Forced                                   : No
Color primaries                          : BT.709
Transfer characteristics                 : BT.709
Matrix coefficients                      : BT.709
Audio #1
ID                                       : 2
Format                                   : AC-3
Format/Info                              : Audio Coding 3
Mode extension                           : CM (complete main)
Format settings, Endianness              : Big
Codec ID                                 : A_AC3
Duration                                 : 2h 5mn
Bit rate mode                            : Constant
Bit rate                                 : 384 Kbps
Channel(s)                               : 6 channels
Channel positions                        : Front: L C R, Side: L R, LFE
Sampling rate                            : 48.0 KHz
Bit depth                                : 16 bits
Compression mode                         : Lossy
Stream size                              : 344 MiB (4%)
Language                                 : Russian
Default                                  : Yes
Forced                                   : No
Audio #2
ID                                       : 3
Format                                   : AC-3
Format/Info                              : Audio Coding 3
Mode extension                           : CM (complete main)
Format settings, Endianness              : Big
Codec ID                                 : A_AC3
Duration                                 : 2h 5mn
Bit rate mode                            : Constant
Bit rate                                 : 448 Kbps
Channel(s)                               : 5 channels
Channel positions                        : Front: L C R, Side: L R
Sampling rate                            : 48.0 KHz
Bit depth                                : 16 bits
Compression mode                         : Lossy
Stream size                              : 401 MiB (5%)
Language                                 : English
Default                                  : No
Forced                                   : No
Text #1
ID                                       : 4
Format                                   : UTF-8
Codec ID                                 : S_TEXT/UTF8
Codec ID/Info                            : UTF-8 Plain Text
Language                                 : Russian
Default                                  : No
Forced                                   : No
Text #2
ID                                       : 5
Format                                   : UTF-8
Codec ID                                 : S_TEXT/UTF8
Codec ID/Info                            : UTF-8 Plain Text
Language                                 : English
Default                                  : No
Forced                                   : No
Text #3
ID                                       : 6
Format                                   : UTF-8
Codec ID                                 : S_TEXT/UTF8
Codec ID/Info                            : UTF-8 Plain Text
Title                                    : SDH
Language                                 : English
Default                                  : No
Forced                                   : No
Menu
00:00:00.000                             : en:00:00:00.000
00:05:58.983                             : en:00:05:58.983
00:09:02.583                             : en:00:09:02.583
00:09:29.026                             : en:00:09:29.026
00:12:48.392                             : en:00:12:48.392
00:15:48.572                             : en:00:15:48.572
00:19:47.060                             : en:00:19:47.060
00:22:21.381                             : en:00:22:21.381
00:25:59.516                             : en:00:25:59.516
00:30:34.082                             : en:00:30:34.082
00:39:27.490                             : en:00:39:27.490
00:42:58.325                             : en:00:42:58.325
00:46:09.183                             : en:00:46:09.183
00:48:27.195                             : en:00:48:27.195
00:52:45.662                             : en:00:52:45.662
00:55:11.349                             : en:00:55:11.349
00:58:40.683                             : en:00:58:40.683
00:59:26.312                             : en:00:59:26.312
01:01:34.732                             : en:01:01:34.732
01:03:52.912                             : en:01:03:52.912
01:07:04.645                             : en:01:07:04.645
01:09:13.858                             : en:01:09:13.858
01:11:32.329                             : en:01:11:32.329
01:12:24.214                             : en:01:12:24.214
01:15:50.087                             : en:01:15:50.087
01:17:25.932                             : en:01:17:25.932
01:21:33.471                             : en:01:21:33.471
01:23:24.040                             : en:01:23:24.040
01:27:41.547                             : en:01:27:41.547
01:33:07.123                             : en:01:33:07.123
01:36:53.766                             : en:01:36:53.766
01:40:33.986                             : en:01:40:33.986
01:45:06.675                             : en:01:45:06.675
01:45:57.642                             : en:01:45:57.642
01:49:55.964                             : en:01:49:55.964
01:56:17.011                             : en:01:56:17.011
02:01:05.508                             : en:02:01:05.508

Знаете ли Вы, что...

★ Режиссёром фильма должен был стать Филлип Борсос, но он умер от лейкемии ещё до начала съёмок. Другой претендент на режиссёрское кресло — Майкл Уинтереботтом — не сошёлся во взглядах на будущую картину с автором сценария Джоном Ирвингом.
★ Автор романа и сценария «Правил виноделов» Джон Ирвинг сыграл в фильме роль станционного смотрителя.
★ Сын Джона Ирвинга — Колин Ирвинг — сыграл роль майора Уинслоу, который приезжает на ферму с новостями об Уолли.

Скриншоты

       
       

_________________
Человек – это канат, натянутый между животным и сверхчеловеком, – канат над пропастью.
В человеке ценно то, что он мост, а не цель. Фридрих Ницше
Other forum [Profile] [PM]
Display posts from previous:    
Reply to topic

The time now is: Today 10:14

All times are GMT + 3 Hours



You cannot post new topics in this forum
You cannot reply to topics in this forum
You cannot edit your posts in this forum
You cannot delete your posts in this forum
You cannot vote in polls in this forum
You cannot attach files in this forum
You cannot download files in this forum