Today is a free download without charge Download

Завороженный / Spellbound (Альфред Хичкок / Alfred Hitchcock) [1945, США, фильм-нуар, триллер, мелодрама, детектив, BDRip 720p] 2x MVO + AVO (Либергал) + Sub (Rus, Ebg) + Original Eng

Reply to topic
 
Author
Message

Omen ®

Longevity: 8 years 5 months

Posts: 181087

Торрент-статистика

Post 05-May-2013 08:35

[Quote]

Завороженный / Spellbound
Страна: США
Жанр: фильм-нуар, триллер, мелодрама, детектив
Год выпуска: 1945
Продолжительность: 01:58:09
Перевод: Профессиональный (многоголосый закадровый) SomeWax
Перевод: Профессиональный (многоголосый закадровый) New Dream Media
Перевод: Авторский (одноголосый закадровый) Г. Либергал
Cубтитры: русские, английские
Оригинальная аудиодорожка: английский-Режиссер: Альфред Хичкок / Alfred Hitchcock
В ролях: Ингрид Бергман, Грегори Пек, Михаил Чехов, Лео Г. Кэррол, Ронда Флеминг, Джон Эмери, Норман Ллойд, Билл Гудвин, Стивен Герэй, Дональд Кёртис
Описание: По роману «Дом доктора Эдвардса» (1927) Хилари Сент-Джордж Сондерс и Джона Палмера (под коллективным псевдонимом «Фрэнсис Бидинг»).
Констанс Питерсен, сотрудница института психиатрии, заводит роман с новым директором этого института, известным ученым Энтони Эдвардсом. Однако его странное поведение сперва тревожит ее, а вскоре приводит к заключению, что он - не тот за кого себя выдает. В ходе непродолжительного расследования, она выясняет, что его настоящее имя - Джон Баллантайн, что он - бывший пациент настоящего Эдвардса, и что сам профессор Энтони считается в данный момент без вести пропавшим. Тем не менее, она желает своему возлюбленному лишь добра, для чего увозит его к доктору Брюлову, с которым намеревается, изучая психику, сны и подсознание Джона, выяснить его прошлое и излечить от амнезии.
IMDb || КиноПоиск-Тип релиза: BDRip 720p [Wiki]
Контейнер: MKV
Видео: H.264/AVC, 986x720 at 23.976 fps, ~9101 kbps
Аудио#1: Russian: 48 kHz, AC3, 2/0 (L,R) ch, ~192.00 kbps avg |Многоголосый закадровый, SomeWax|
Аудио#2: Russian: 48 kHz, AC3, 2/0 (L,R) ch, ~192.00 kbps avg |Многоголосый закадровый, New Dream Media|
Аудио#3: Russian: 48 kHz, DTS, 2/0 (L,R) ch, 1510.00 kbps |Авторский одноголосый, Г.Либергал|
Аудио#4: English: 48 kHz, DTS, 2/0 (L,R) ch, 1510.00 kbps
Аудио#5: English: 48 kHz, AC3, 2/0 (L,R) ch, 224.00 kbps |Commentary|
Формат субтитров: softsub (SRT)
Сэмпл

MediaInfo

x264

x264 [info]: frame I:889 Avg QP:17.81 size:128961
x264 [info]: frame P:28972 Avg QP:20.42 size: 64656
x264 [info]: frame B:140114 Avg QP:22.94 size: 43372
x264 [info]: consecutive B-frames: 0.8% 0.4% 2.3% 7.1% 9.6% 50.2% 10.4% 9.5% 9.8%
Format : Matroska
Format version : Version 2
File size : 10.5 GiB
Duration : 1h 58mn
Overall bit rate : 12.7 Mbps
Encoded date : UTC 2013-05-05 04:33:41
Writing application : mkvmerge v5.0.1 ('Es ist Sommer') built on Nov 6 2011 16:23:40
Writing library : libebml v1.2.2 + libmatroska v1.3.0
Video
ID : 1
Format : AVC
Format/Info : Advanced Video Codec
Format profile : [email protected]
Format settings, CABAC : Yes
Format settings, ReFrames : 11 frames
Codec ID : V_MPEG4/ISO/AVC
Duration : 1h 58mn
Bit rate : 9 101 Kbps
Width : 986 pixels
Height : 720 pixels
Display aspect ratio : 4:3
Frame rate : 23.976 fps
Color space : YUV
Chroma subsampling : 4:2:0
Bit depth : 8 bits
Scan type : Progressive
Bits/(Pixel*Frame) : 0.535
Stream size : 7.30 GiB (70%)
Title : YiFan @ WiKi
Writing library : x264 core 125 r2200 999b753
Encoding settings : cabac=1 / ref=11 / deblock=1:-3:-3 / analyse=0x3:0x133 / me=umh / subme=11 / psy=1 / psy_rd=1.10:0.15 / mixed_ref=1 / me_range=32 / chroma_me=0 / trellis=2 / 8x8dct=1 / cqm=0 / deadzone=21,11 / fast_pskip=0 / chroma_qp_offset=-3 / threads=12 / lookahead_threads=2 / sliced_threads=0 / nr=0 / decimate=1 / interlaced=0 / bluray_compat=0 / constrained_intra=0 / bframes=8 / b_pyramid=2 / b_adapt=2 / b_bias=0 / direct=3 / weightb=1 / open_gop=0 / weightp=2 / keyint=250 / keyint_min=23 / scenecut=40 / intra_refresh=0 / rc_lookahead=250 / rc=2pass / mbtree=1 / bitrate=9101 / ratetol=1.0 / qcomp=0.60 / qpmin=0 / qpmax=69 / qpstep=4 / cplxblur=20.0 / qblur=0.5 / ip_ratio=1.40 / aq=2:0.85 / zones=0,214,chroma-me=1
Language : English
Default : Yes
Forced : No
Audio #1
ID : 2
Format : AC-3
Format/Info : Audio Coding 3
Format profile : Dolby Digital
Mode extension : CM (complete main)
Codec ID : A_AC3
Duration : 1h 58mn
Bit rate mode : Constant
Bit rate : 192 Kbps
Channel(s) : 2 channels
Channel positions : Front: L R
Sampling rate : 48.0 KHz
Bit depth : 16 bits
Compression mode : Lossy
Stream size : 162 MiB (2%)
Title : SomeWax
Language : Russian
Default : Yes
Forced : No
Audio #2
ID : 3
Format : AC-3
Format/Info : Audio Coding 3
Format profile : Dolby Digital
Mode extension : CM (complete main)
Codec ID : A_AC3
Duration : 1h 58mn
Bit rate mode : Constant
Bit rate : 192 Kbps
Channel(s) : 2 channels
Channel positions : Front: L R
Sampling rate : 48.0 KHz
Bit depth : 16 bits
Compression mode : Lossy
Stream size : 162 MiB (2%)
Title : New Dream Media
Language : Russian
Default : No
Forced : No
Audio #3
ID : 4
Format : DTS
Format/Info : Digital Theater Systems
Codec ID : A_DTS
Duration : 1h 58mn
Bit rate mode : Constant
Bit rate : 1 510 Kbps
Channel(s) : 2 channels
Channel positions : Front: L R
Sampling rate : 48.0 KHz
Bit depth : 24 bits
Compression mode : Lossy
Stream size : 1.25 GiB (12%)
Title : avo
Language : Russian
Default : No
Forced : No
Audio #4
ID : 5
Format : DTS
Format/Info : Digital Theater Systems
Codec ID : A_DTS
Duration : 1h 58mn
Bit rate mode : Constant
Bit rate : 1 510 Kbps
Channel(s) : 2 channels
Channel positions : Front: L R
Sampling rate : 48.0 KHz
Bit depth : 24 bits
Compression mode : Lossy
Stream size : 1.25 GiB (12%)
Language : English
Default : No
Forced : No
Audio #5
ID : 6
Format : AC-3
Format/Info : Audio Coding 3
Mode extension : CM (complete main)
Codec ID : A_AC3
Duration : 1h 58mn
Bit rate mode : Constant
Bit rate : 224 Kbps
Channel(s) : 2 channels
Channel positions : Front: L R
Sampling rate : 48.0 KHz
Bit depth : 16 bits
Compression mode : Lossy
Stream size : 189 MiB (2%)
Title : commentary
Language : English
Default : No
Forced : No
Text #1
ID : 7
Format : UTF-8
Codec ID : S_TEXT/UTF8
Codec ID/Info : UTF-8 Plain Text
Language : Russian
Default : No
Forced : No
Text #2
ID : 8
Format : UTF-8
Codec ID : S_TEXT/UTF8
Codec ID/Info : UTF-8 Plain Text
Language : English
Default : No
Forced : No
Menu
00:00:00.000 : en:00:00:00.000
00:04:14.254 : en:00:04:14.254
00:05:40.966 : en:00:05:40.966
00:09:34.073 : en:00:09:34.073
00:11:10.295 : en:00:11:10.295
00:13:09.706 : en:00:13:09.706
00:16:50.635 : en:00:16:50.635
00:20:43.200 : en:00:20:43.200
00:23:38.000 : en:00:23:38.000
00:28:51.730 : en:00:28:51.730
00:31:47.864 : en:00:31:47.864
00:37:31.207 : en:00:37:31.207
00:42:43.561 : en:00:42:43.561
00:47:54.538 : en:00:47:54.538
00:54:04.366 : en:00:54:04.366
01:00:58.822 : en:01:00:58.822
01:06:59.974 : en:01:06:59.974
01:10:34.063 : en:01:10:34.063
01:15:39.869 : en:01:15:39.869
01:22:45.294 : en:01:22:45.294
01:26:48.078 : en:01:26:48.078
01:33:07.791 : en:01:33:07.791
01:36:24.946 : en:01:36:24.946
01:39:11.487 : en:01:39:11.487
01:42:45.117 : en:01:42:45.117
01:47:33.238 : en:01:47:33.238
01:54:41.249 : en:01:54:41.249
01:55:22.833 : en:01:55:22.833

Скриншоты

Wiki vs Source
Other forum [Profile] [PM]
Display posts from previous:    
Reply to topic

The time now is: Today 23:12

All times are GMT + 3 Hours



You cannot post new topics in this forum
You cannot reply to topics in this forum
You cannot edit your posts in this forum
You cannot delete your posts in this forum
You cannot vote in polls in this forum
You cannot attach files in this forum
You cannot download files in this forum