Today is a free download without charge Download

Повелители Салема / The Lords of Salem (Роб Зомби / Rob Zombie) [2012, ужасы, триллер, WEB-DL 720p] VO + ENG + SUB (rus)

Reply to topic
 
Author
Message

Omen ®

Longevity: 8 years 5 months

Posts: 181087

Торрент-статистика

Post 04-May-2013 20:03

[Quote]

Повелители Салема : The Lords of Salem«Мы ждали... мы всегда ждали.» Страна: США Великобритания Канада
Год выпуска: 2012
Жанр: ужасы, триллер
Продолжительность: 01:40:59
Перевод: Одноголосый закадровый [den904]
русские субтитры: есть-Режиссёр: Роб Зомби : Rob Zombie
В главных ролях: Шери Мун Зомби, Брюс Дэвисон, Джеффри Дэниэл Филлипс, Джуди Гисон, Мег Фостер, Патриция Куинн, Кен Фори, Ди Уоллес-Стоун, Мария Кончита Алонсо, Ричард Фэнси-Описание: Блондинка Хейди — крутая диск-жокейка провинциальной радиостанции, вместе с двумя друзьями они составляют команду Big H Radio. Хейди получает странную посылку — деревянную коробку с виниловой пластинкой, «подарок от Властелинов». Она решает, что это неизвестная ей прежде рок-группа таким образом обращает на себя внимание. Но когда пластинка начинает играть, Хейди испытывает шок, связанный с подавленными воспоминаниями. Однако никто больше ничего подобного не переживает и песня, названная «Властелины Салема», становится хитом. Позднее приходит еще одна посылка от Властелинов, содержащая плакаты, аудио и три бесплатных пригласительных билета на некую вечеринку в Салеме. Хейди и ее друзьям предстоит узнать, что это будет вовсе не рок-концерт: самые настоящие властелины ведьмовского города Салем вернулись и жаждут крови.- -Качество: WEB-DL 720p
Формат: MKV
Видео кодек: AVC
Аудио кодек: АС3
Видео: 1280x532, 23.976 fps, ~3 866 kbps avg, 0.237 bit/pixel
Аудио #1: 48 kHz, AC3 Dolby Digital, 3/2 (L,C,R,l,r) + LFE ch, ~384 kbps
Аудио #2: 48 kHz, AC3 Dolby Digital, 3/2 (L,C,R,l,r) + LFE ch, ~384 kbps
субтитры: русские
навигация по главам: 12 глав

MediaInfo

Общее
Уникальный идентификатор : 220257883166826910277426634923741970087 (0xA5B420118D811634ABD72FF20C5E7EA7)
Полное имя : D:\Im\Повелители Салема\The Lords of Salem.2012.WEB-DL 720p.mkv
Формат : Matroska
Версия формата : Version 4 / Version 2
Размер файла : 3,34 Гбайт
Продолжительность : 1 ч. 40 м.
Общий поток : 4728 Кбит/сек
Дата кодирования : UTC 2013-05-04 12:36:21
Программа кодирования : mkvmerge v6.1.0 ('Old Devil') built on Mar 2 2013 14:32:37
Библиотека кодирования : libebml v1.3.0 + libmatroska v1.4.0
Видео
Идентификатор : 1
Формат : AVC
Формат/Информация : Advanced Video Codec
Профиль формата : [email protected]
Параметр CABAC формата : Нет
Параметр ReFrames формата : 2 кадра
Идентификатор кодека : V_MPEG4/ISO/AVC
Продолжительность : 1 ч. 40 м.
Битрейт : 3866 Кбит/сек
Ширина : 1280 пикселей
Высота : 532 пикселя
Соотношение сторон : 2,40:1
Частота кадров : 23,976 кадра/сек
Цветовое пространство : YUV
Субдискретизация насыщенности : 4:2:0
Битовая глубина : 8 бит
Тип развёртки : Прогрессивная
Бит/(Пиксели*Кадры) : 0.237
Размер потока : 2,73 Гбайт (82%)
Язык : English
Default : Да
Forced : Нет
Основные цвета : BT.709-5, BT.1361, IEC 61966-2-4, SMPTE RP177
Характеристики трансфера : BT.709-5, BT.1361
Коэффициенты матрицы : BT.709-5, BT.1361, IEC 61966-2-4 709, SMPTE RP177
Аудио #1
Идентификатор : 2
Формат : AC-3
Формат/Информация : Audio Coding 3
Расширение режима : CM (complete main)
Идентификатор кодека : A_AC3
Продолжительность : 1 ч. 40 м.
Вид битрейта : Постоянный
Битрейт : 384 Кбит/сек
Каналы : 6 каналов
Расположение каналов : Front: L C R, Side: L R, LFE
Частота : 48,0 КГц
Битовая глубина : 16 бит
Метод сжатия : С потерями
Размер потока : 277 Мбайт (8%)
Заголовок : VO [den904]
Язык : Russian
Default : Да
Forced : Нет
Аудио #2
Идентификатор : 3
Формат : AC-3
Формат/Информация : Audio Coding 3
Расширение режима : CM (complete main)
Идентификатор кодека : A_AC3
Продолжительность : 1 ч. 40 м.
Вид битрейта : Постоянный
Битрейт : 384 Кбит/сек
Каналы : 6 каналов
Расположение каналов : Front: L C R, Side: L R, LFE
Частота : 48,0 КГц
Битовая глубина : 16 бит
Метод сжатия : С потерями
Размер потока : 277 Мбайт (8%)
Заголовок : ENG
Язык : English
Default : Нет
Forced : Нет
Текст
Идентификатор : 4
Формат : UTF-8
Идентификатор кодека : S_TEXT/UTF8
Идентификатор кодека/Информация : UTF-8 Plain Text
Заголовок : Rus Sub [Aidolov777]
Язык : Russian
Default : Да
Forced : Нет
Меню
00:00:00.000 : en:Chapter 1
00:08:04.000 : en:Chapter 2
00:15:47.000 : en:Chapter 3
00:25:29.000 : en:Chapter 4
00:33:18.000 : en:Chapter 5
00:41:16.000 : en:Chapter 6
00:50:21.000 : en:Chapter 7
00:59:18.000 : en:Chapter 8
01:07:04.000 : en:Chapter 9
01:14:52.000 : en:Chapter 10
01:23:19.000 : en:Chapter 11
01:32:30.000 : en:Chapter 12
Не забываем оставлять комментарии к релизу, мне интересно Ваше мнение!
Other forum [Profile] [PM]
Display posts from previous:    
Reply to topic

The time now is: Today 11:33

All times are GMT + 3 Hours



You cannot post new topics in this forum
You cannot reply to topics in this forum
You cannot edit your posts in this forum
You cannot delete your posts in this forum
You cannot vote in polls in this forum
You cannot attach files in this forum
You cannot download files in this forum