Today is a free download without charge Download

Любовь – это всё, что тебе нужно / All you need is Love / Den skaldede frisør (Сюзанна Бир / Susanne Bier) [2012, Дания, Швеция, Италия, Франция, Германия, мелодрама, комедия, BDRip 720p] Dub + Original Dan

Reply to topic
 
Author
Message

Omen ®

Longevity: 8 years 5 months

Posts: 181087

Торрент-статистика

Post 04-May-2013 20:03

[Quote]

Любовь – это всё, что тебе нужно / All you need is Love / Den skaldede frisør- Страна: Дания, Швеция, Италия, Франция, Германия
Студия: arte, Film i Väst, Liberator Productions, Lumière & Company, Network Movie, Slot Machine
Жанр: мелодрама, комедия
Год выпуска: 2012
Продолжительность: 01:56:02-Перевод: Профессиональный (дублированный)
Cубтитры: нет
Оригинальная аудиодорожка: датский-Режиссер: Сюзанна Бир / Susanne Bier
В ролях: Трине Дюрхольм, Пирс Броснан, Паприка Стеэн, Ким Бодния, Кристиан Шамбург-Мюллер, Себастьян Йессен, Молли Бликст Эгелинд, Стина Экблад, Бодиль Ёргенсон, Рикке Луиз Андерссон-Описание: Филипп красив, богат и… одинок. Ида замужем, но ее супруг увлечен другой. Скоро они встретятся на свадьбе своих детей в одном из самых живописных городов мира -итальянском Сорренто. Знойные неаполитанские ночи, аромат лимонных деревьев и непередаваемая атмосфера праздника помогут вспомнить, что любовь — это все, что им нужно…- -Тип релиза: BDRip 720p
Контейнер: MKV-Видео: AVC; 1280x544; 2,35:1; 23,976 fps; 5440 kbps
Аудио 1: Russian (Dolby AC3, 6 ch) 448 Кбит/сек, 48,0 КГц
Аудио 2: Danish (DTS, 6 ch) 1510 Кбит/сек, 48,0 КГц

MediaInfo

Общее
Уникальный идентификатор : 231188815319896952190603705183115318605 (0xADED58A215692651994076F6D3DE954D)
Полное имя : F:Ljubov' – jeto vsjo, chto tebe nuzhno (2012) BDRip.720.mkv
Формат : Matroska
Размер файла : 5,99 Гбайт
Продолжительность : 1 ч. 56 м.
Общий поток : 7392 Кбит/сек
Дата кодирования : UTC 2013-05-04 14:35:03
Программа кодирования : mkvmerge v5.8.0 ('No Sleep / Pillow') built on Sep 2 2012 15:37:04
Библиотека кодирования : libebml v1.2.3 + libmatroska v1.3.0
Видео
Идентификатор : 1
Формат : AVC
Формат/Информация : Advanced Video Codec
Профиль формата : [email protected]
Параметр CABAC формата : Да
Параметр ReFrames формата : 5 кадров
Идентификатор кодека : V_MPEG4/ISO/AVC
Продолжительность : 1 ч. 56 м.
Битрейт : 5440 Кбит/сек
Ширина : 1280 пикс.
Высота : 544 пикс.
Соотношение сторон : 2,35:1
Частота кадров : 23,976 кадр/сек
Цветовое пространство : YUV
Подвыборка цветности : 4:2:0
Битовая глубина : 8 бит
Тип развёртки : Прогрессивная
Бит/(Пиксели*Кадры) : 0.326
Размер потока : 4,29 Гбайт (72%)
Библиотека кодирования : x264 core 130 r2273 b3065e6
Настройки программы : cabac=1 / ref=5 / deblock=1:-1:-1 / analyse=0x1:0x111 / me=umh / subme=9 / psy=1 / psy_rd=1.00:0.15 / mixed_ref=1 / me_range=24 / chroma_me=1 / trellis=1 / 8x8dct=0 / cqm=0 / deadzone=21,11 / fast_pskip=1 / chroma_qp_offset=-3 / threads=6 / lookahead_threads=1 / sliced_threads=0 / nr=0 / decimate=1 / interlaced=0 / bluray_compat=0 / constrained_intra=0 / bframes=7 / b_pyramid=2 / b_adapt=2 / b_bias=0 / direct=3 / weightb=1 / open_gop=0 / weightp=2 / keyint=240 / keyint_min=23 / scenecut=40 / intra_refresh=0 / rc_lookahead=50 / rc=2pass / mbtree=1 / bitrate=5440 / ratetol=1.0 / qcomp=0.60 / qpmin=0 / qpmax=69 / qpstep=4 / cplxblur=20.0 / qblur=0.5 / vbv_maxrate=50000 / vbv_bufsize=50000 / nal_hrd=none / ip_ratio=1.40 / aq=1:1.00
Язык : English
Аудио #1
Идентификатор : 2
Формат : AC-3
Формат/Информация : Audio Coding 3
Расширение режима : CM (complete main)
Идентификатор кодека : A_AC3
Продолжительность : 1 ч. 56 м.
Вид битрейта : Постоянный
Битрейт : 448 Кбит/сек
Каналы : 6 каналов
Расположение каналов : Front: L C R, Side: L R, LFE
Частота : 48,0 КГц
Битовая глубина : 16 бит
Метод сжатия : С потерями
Размер потока : 372 Мбайт (6%)
Язык : Russian
Аудио #2
Идентификатор : 3
Формат : DTS
Формат/Информация : Digital Theater Systems
Идентификатор кодека : A_DTS
Продолжительность : 1 ч. 56 м.
Вид битрейта : Постоянный
Битрейт : 1510 Кбит/сек
Каналы : 6 каналов
Расположение каналов : Front: L C R, Side: L R, LFE
Частота : 48,0 КГц
Битовая глубина : 24 бит
Метод сжатия : С потерями
Размер потока : 1,22 Гбайт (20%)
Язык : Danish
Меню
00:00:00.000 : en:00:00:00.000
00:10:15.030 : en:00:10:15.030
00:20:38.653 : en:00:20:38.653
00:31:52.743 : en:00:31:52.743
00:39:58.353 : en:00:39:58.353
00:51:54.777 : en:00:51:54.777
01:00:48.603 : en:01:00:48.603
01:14:25.543 : en:01:14:25.543
01:22:09.132 : en:01:22:09.132
01:31:13.467 : en:01:31:13.467
01:45:22.942 : en:01:45:22.942

Скриншоты

Other forum [Profile] [PM]
Display posts from previous:    
Reply to topic

The time now is: Today 10:23

All times are GMT + 3 Hours



You cannot post new topics in this forum
You cannot reply to topics in this forum
You cannot edit your posts in this forum
You cannot delete your posts in this forum
You cannot vote in polls in this forum
You cannot attach files in this forum
You cannot download files in this forum