Today is a free download without charge Download

Лис и пес / Лис и охотничий пес / Тодд и Коппер / The Fox and the Hound (Тед Берман / Ted Berman, Ричард Рич / Richard Rich, Арт Стивенс / Art Stevens) [1981, мультфильм, приключения, семейный, BDRemux 1080p] Dub + MVO (Карусель) + 4хAVO + ENG + Subs

Reply to topic
 
Author
Message

Omen ®

Longevity: 8 years 1 month

Posts: 181087

Торрент-статистика

Post 04-May-2013 20:03

[Quote]

Лис и пес / The Fox and the Hound- Страна: США
Жанр: мультфильм, приключения, семейный
Продолжительность: 01:22:54
Год выпуска: 1981
Перевод 01: Профессиональный (дублированный) | BD CEE
Перевод 02: Профессиональный (многоголосый закадровый) | Карусель
Перевод 03: Авторский (одноголосый закадровый) | Вартан Дохалов
Перевод 04: Авторский (одноголосый закадровый) | Юрий Живов
Перевод 05: Авторский (одноголосый закадровый) | Андрей Дольский
Перевод 06: Авторский (одноголосый закадровый) | Антон Алексеев | VHS
Русские субтитры: есть
-Режиссёр: Тед Берман / Ted Berman, Ричард Рич / Richard Rich, Арт Стивенс / Art Stevens
Роли озвучивали: Микки Руни, Курт Рассел, Перл Бэйли, Джек Альбертсон, Сэнди Дункан, Жанетт Нолан, Пэт Баттрем, Джон Фидлер, Джон МакИнтайр, Ричард Бакалян
- -Описание: Экранизация книги Дэниэла П. Мэнникса. История про лисенка Тодда и щенка Коппера. Малыши были очень дружны, но когда подросли, одному природа уготовила роль охотника, другому, увы, объекта охоты.-Доп. информация:
  • За основу был взят замечательный релиз от HDClub и vlaluk.
  • Были заменены:
    - Русская дублированная звуковая дорожка с DVD (AC3, 2.0ch, 192 kbps) на идентичную по переводу с BD CEE (AC3, 5.1ch, 640 kbps).
    - Русские субтитры (теперь с BD CEE).

  • Были добавлены:
    - Звуковая дорожка с переводом Андрея Дольского (сделан с чистого голоса).
    - Звуковая дорожка с переводом Антона Алексеева (с VHS).

  • За чистый голос Дольского спасибо multmir.
  • За оцифровку Алексеева спасибо: -SERDGO-, bora86bora, ripak22mee.
  • Работа с дорожками с переводами Дольского, Алексеева - bora86bora.
-Семпл: скачать-Качество: BDRemux 1080p
Формат: MKV
Видео: 1920x1080p 23.976 fps, 16:9, MPEG-4 AVC Video ~32976 kbps
Аудио #01 Русский, 48.0 KHz, AC3, 6 ch, 640 kbps - Дубляж | BD CEE
Аудио #02 Русский, 48.0 KHz, DTS-HD MA, 5.1 ch, 3393 kbps, 24-bit (DTS Core: 5.1 / 48 kHz / 1509 kbps / 24-bit) - Многоголосый закадровый | "Карусель"
Аудио #03 Русский, 48.0 KHz, DTS-HD MA, 5.1 ch, 3381 kbps, 24-bit (DTS Core: 5.1 / 48 kHz / 1509 kbps / 24-bit) - Одноголосый закадровый | Вартан Дохалов
Аудио #04 Русский, 48.0 KHz, DTS-HD MA, 5.1 ch, 3412 kbps, 24-bit (DTS Core: 5.1 / 48 kHz / 1509 kbps / 24-bit) - Одноголосый закадровый | Юрий Живов
Аудио #05 Русский, 48.0 KHz, DTS-HD MA, 5.1 ch, 3385 kbps, 24-bit (DTS Core: 5.1 / 48 kHz / 1509 kbps / 24-bit) - Одноголосый закадровый | Андрей Дольский
Аудио #06 Русский, 48.0 KHz, AC3, 1 ch, 192 kbps - Одноголосый закадровый | Антон Алексеев | VHS
Аудио #07 English, 48.0 KHz, DTS-HD MA, 5.1 ch, 3390 kbps, 24-bit (DTS Core: 5.1 / 48 kHz / 1509 kbps / 24-bit)
Субтитры: Русские, English, English (SDH), French, Spanish

MediaInfo

ОбщееУникальный идентификатор : 251957776811249614641913557797607419969 (0xBD8D4D7E48E47CFAAC20E79CAE51B041)Полное имя : ...\The.Fox.and.the.Hound.1981.1080p.BDRemux.x264.rutracker.mkvФормат : MatroskaВерсия формата : Version 4 / Version 2Размер файла : 29,2 ГбайтПродолжительность : 1 ч. 22 м.Режим общего битрейта : ПеременныйОбщий поток : 50,4 Мбит/секНазвание фильма : The Fox and the Hound (1981) BDRemux 1080pДата кодирования : UTC 2013-05-02 17:40:54Программа кодирования : mkvmerge v6.1.0 ('Old Devil') built on Mar 2 2013 14:32:37Библиотека кодирования : libebml v1.3.0 + libmatroska v1.4.0
ВидеоИдентификатор : 1Формат : AVCФормат/Информация : Advanced Video CodecПрофиль формата : [email protected]Параметр CABAC формата : ДаПараметр ReFrames формата : 4 кадраРежим смешивания : Container [email protected]Идентификатор кодека : V_MPEG4/ISO/AVCПродолжительность : 1 ч. 22 м.Вид битрейта : ПеременныйМаксимальный битрейт : 38,0 Мбит/секШирина : 1920 пикселейВысота : 1080 пикселейСоотношение сторон : 16:9Режим частоты кадров : ПостоянныйЧастота кадров : 23,976 кадра/секЦветовое пространство : YUVСубдискретизация насыщенности : 4:2:0Битовая глубина : 8 битТип развёртки : ПрогрессивнаяЗаголовок : BDRemux 1080p / bora86bora / РГ Мультфильмы / rutracker.orgЯзык : EnglishDefault : ДаForced : Нет
Аудио #1Идентификатор : 2Формат : AC-3Формат/Информация : Audio Coding 3Расширение режима : CM (complete main)Параметр Endianness формата : BigИдентификатор кодека : A_AC3Продолжительность : 1 ч. 22 м.Вид битрейта : ПостоянныйБитрейт : 640 Кбит/секКаналы : 6 каналовРасположение каналов : Front: L C R, Side: L R, LFEЧастота : 48,0 КГцБитовая глубина : 16 битМетод сжатия : С потерямиРазмер потока : 380 Мбайт (1%)Заголовок : Дубляж | BD CEEЯзык : RussianDefault : ДаForced : Нет
Аудио #2Идентификатор : 3Формат : DTSФормат/Информация : Digital Theater SystemsПрофиль формата : MA / CoreРежим : 16Параметр Endianness формата : BigИдентификатор кодека : A_DTSПродолжительность : 1 ч. 22 м.Вид битрейта : ПеременныйБитрейт : Неизвестно / 1509 Кбит/секКаналы : 6 каналовРасположение каналов : Front: L C R, Side: L R, LFEЧастота : 48,0 КГцБитовая глубина : 24 битМетод сжатия : Без потерь / LossyЗаголовок : Многоголосый закадровый | КарусельЯзык : RussianDefault : НетForced : Нет
Аудио #3Идентификатор : 4Формат : DTSФормат/Информация : Digital Theater SystemsПрофиль формата : MA / CoreРежим : 16Параметр Endianness формата : BigИдентификатор кодека : A_DTSПродолжительность : 1 ч. 22 м.Вид битрейта : ПеременныйБитрейт : Неизвестно / 1509 Кбит/секКаналы : 6 каналовРасположение каналов : Front: L C R, Side: L R, LFEЧастота : 48,0 КГцБитовая глубина : 24 битМетод сжатия : Без потерь / LossyЗаголовок : Одноголосый закадровый | Вартан ДохаловЯзык : RussianDefault : НетForced : Нет
Аудио #4Идентификатор : 5Формат : DTSФормат/Информация : Digital Theater SystemsПрофиль формата : MA / CoreРежим : 16Параметр Endianness формата : BigИдентификатор кодека : A_DTSПродолжительность : 1 ч. 22 м.Вид битрейта : ПеременныйБитрейт : Неизвестно / 1509 Кбит/секКаналы : 6 каналовРасположение каналов : Front: L C R, Side: L R, LFEЧастота : 48,0 КГцБитовая глубина : 24 битМетод сжатия : Без потерь / LossyЗаголовок : Одноголосый закадровый | Юрий ЖивовЯзык : RussianDefault : НетForced : Нет
Аудио #5Идентификатор : 6Формат : DTSФормат/Информация : Digital Theater SystemsПрофиль формата : MA / CoreРежим : 16Параметр Endianness формата : BigИдентификатор кодека : A_DTSПродолжительность : 1 ч. 22 м.Вид битрейта : ПеременныйБитрейт : Неизвестно / 1509 Кбит/секКаналы : 6 каналовРасположение каналов : Front: L C R, Side: L R, LFEЧастота : 48,0 КГцБитовая глубина : 24 битМетод сжатия : Без потерь / LossyЗаголовок : Одноголосый закадровый | Андрей ДольскийЯзык : RussianDefault : НетForced : Нет
Аудио #6Идентификатор : 7Формат : AC-3Формат/Информация : Audio Coding 3Расширение режима : CM (complete main)Параметр Endianness формата : BigИдентификатор кодека : A_AC3Продолжительность : 1 ч. 22 м.Вид битрейта : ПостоянныйБитрейт : 192 Кбит/секКаналы : 1 каналРасположение каналов : Front: CЧастота : 48,0 КГцБитовая глубина : 16 битМетод сжатия : С потерямиРазмер потока : 114 Мбайт (0%)Заголовок : Одноголосый закадровый | Антон Алексеев | VHSЯзык : RussianDefault : НетForced : Нет
Аудио #7Идентификатор : 8Формат : DTSФормат/Информация : Digital Theater SystemsПрофиль формата : MA / CoreРежим : 16Параметр Endianness формата : BigИдентификатор кодека : A_DTSПродолжительность : 1 ч. 22 м.Вид битрейта : ПеременныйБитрейт : Неизвестно / 1509 Кбит/секКаналы : 6 каналовРасположение каналов : Front: L C R, Side: L R, LFEЧастота : 48,0 КГцБитовая глубина : 24 битМетод сжатия : Без потерь / LossyЯзык : EnglishDefault : НетForced : Нет
Текст #1Идентификатор : 9Формат : UTF-8Идентификатор кодека : S_TEXT/UTF8Идентификатор кодека/Информация : UTF-8 Plain TextЯзык : RussianDefault : НетForced : Нет
Текст #2Идентификатор : 10Формат : UTF-8Идентификатор кодека : S_TEXT/UTF8Идентификатор кодека/Информация : UTF-8 Plain TextЯзык : EnglishDefault : НетForced : Нет
Текст #3Идентификатор : 11Формат : UTF-8Идентификатор кодека : S_TEXT/UTF8Идентификатор кодека/Информация : UTF-8 Plain TextЗаголовок : SDHЯзык : EnglishDefault : НетForced : Нет
Текст #4Идентификатор : 12Формат : UTF-8Идентификатор кодека : S_TEXT/UTF8Идентификатор кодека/Информация : UTF-8 Plain TextЯзык : FrenchDefault : НетForced : Нет
Текст #5Идентификатор : 13Формат : UTF-8Идентификатор кодека : S_TEXT/UTF8Идентификатор кодека/Информация : UTF-8 Plain TextЯзык : SpanishDefault : НетForced : Нет
Меню00:00:00.000 : en:1. Opening Credits00:04:32.564 : en:2. Orphaned00:07:46.591 : en:3. Widwo Tweed Adopts Too00:10:02.560 : en:4. A Surprise For Chief00:11:32.400 : en:5. Mischief in the Barn00:17:46.107 : en:6. Tod and Copper Meet00:18:51.047 : en:7. "The Best of Friends"00:23:06.343 : en:8. Tod Gets into Trouble00:27:44.288 : en:9. Cooped Up00:30:40.756 : en:10. "Lack of Education"00:37:55.857 : en:11. The Next Spring00:43:20.223 : en:12. A Difficult Reunion00:48:16.310 : en:13. The Aftermath00:50:46.752 : en:14. "Goodbye May Seem Forever"00:57:51.051 : en:15. Big Mama Comes Looking For Tod01:01:28.685 : en:16. Tod Meets Vixey01:05:01.272 : en:17. "Appreciate the Lady"01:08:27.854 : en:18. The Hunter Seeks Revenge01:13:56.390 : en:19. An Unexpected Turn of Events01:17:05.871 : en:20. Copper Saves Tod

Скриншоты


Other forum [Profile] [PM]
Display posts from previous:    
Reply to topic

The time now is: Today 02:09

All times are GMT + 3 Hours



You cannot post new topics in this forum
You cannot reply to topics in this forum
You cannot edit your posts in this forum
You cannot delete your posts in this forum
You cannot vote in polls in this forum
You cannot attach files in this forum
You cannot download files in this forum