Today is a free download without charge Download

Linkin park - (MTV World Stage) Live At Arena Monterrey Mexico 2012 [2012, Alternative Rock, HDTV 1080i]

Reply to topic
 
Author
Message

Omen ®

Longevity: 8 years 4 months

Posts: 181087

Торрент-статистика

Post 04-May-2013 20:03

[Quote]

Linkin park - (MTV World Stage) Live At Arena Monterrey Mexico 2012
Жанр: Alternative Rock
Продолжительность: 44m:18s
Год выпуска: 2012
Описание:
Monterrey, Mexico
Arena Monterrey
MTV World Stage
12th September 2012
Треклист:
01. A Place For My Head
02. New Divide
03. Somewhere I Belong
04. Points Of Authority
05. LIES GREED MISERY
06. LOST IN THE ECHO
07. What I've Done
08. BURN IT DOWN
10. In The End
11. Bleed It Out (with 'Sabotage' bridge)
12. One Step Closer
Качество: HDTV 1080i
Контейнер: TS
Видео кодек: H.264
Аудио кодек: AC3
Видео: AVC | 1920x1080 | 9 985 Kbps | 25.000 fps
Аудио: AC-3 | 384 Kbps | 2 ch | 48.0 KHz

Отчёт MediaInfo / BDInfo

GeneralID : 1 (0x1)Complete name : D:\Linkin.Park.MTV.World.Stage.2012.1080i.HDTV.H.264.DD2.0-jTV.tsFormat : MPEG-TSFile size : 3.38 GiBDuration : 44mn 18sOverall bit rate mode : VariableOverall bit rate : 10.9 Mbps
VideoID : 902 (0x386)Menu ID : 1 (0x1)Format : AVCFormat/Info : Advanced Video CodecFormat profile : [email protected] settings, CABAC : YesFormat settings, ReFrames : 4 framesCodec ID : 27Duration : 44mn 18sBit rate : 9 985 KbpsWidth : 1 920 pixelsHeight : 1 080 pixelsDisplay aspect ratio : 16:9Frame rate : 25.000 fpsColor space : YUVChroma subsampling : 4:2:0Bit depth : 8 bitsScan type : InterlacedScan order : Top Field FirstBits/(Pixel*Frame) : 0.193Stream size : 3.09 GiB (92%)Color primaries : BT.709Transfer characteristics : BT.709Matrix coefficients : BT.709
AudioID : 905 (0x389)Menu ID : 1 (0x1)Format : AC-3Format/Info : Audio Coding 3Format profile : Dolby DigitalMode extension : CM (complete main)Format settings, Endianness : BigCodec ID : 6Duration : 44mn 18sBit rate mode : ConstantBit rate : 384 KbpsChannel(s) : 2 channelsChannel positions : Front: L RSampling rate : 48.0 KHzBit depth : 16 bitsCompression mode : LossyStream size : 122 MiB (4%)Language : English

Скриншоты

Other forum [Profile] [PM]
Display posts from previous:    
Reply to topic

The time now is: Today 04:24

All times are GMT + 3 Hours



You cannot post new topics in this forum
You cannot reply to topics in this forum
You cannot edit your posts in this forum
You cannot delete your posts in this forum
You cannot vote in polls in this forum
You cannot attach files in this forum
You cannot download files in this forum