Today is a free download without charge Download

Чрезмерное насилие / Excessive force (Джон Хесс /Jon Hess) [1993, США, Боевик, Боевые Искусства, HDTV 1080i] AVO (Андрей Гаврилов) + AVO (Александр Готлиб) + MVO (Тк РОССИЯ) + Sub Rus + Original Eng

Reply to topic
 
Author
Message

Omen ®

Longevity: 8 years 5 months

Posts: 181087

Торрент-статистика

Post 04-May-2013 15:55

[Quote]

Чрезмерное насилие / Excessive force
Страна: США
Жанр: Боевик, Боевые Искусства
Год выпуска: 1993
Продолжительность: 01:26:52
Перевод: Авторский (одноголосый закадровый) Андрей Гаврилов
Перевод 2: Авторский (одноголосый закадровый) Александр Готлиб
Перевод 3: Профессиональный (многоголосый закадровый) Тк РОССИЯ
Cубтитры: русские
Оригинальная аудиодорожка: английский
Режиссер: Джон Хесс /Jon Hess
В ролях: Томас Иан Гриффит /Thomas Ian Griffith/, Лэнс Хенриксен /Lance Henriksen/, Том Ходжес /Tom Hodges/, Джеймс Эрл Джоунс /James Earl Jones/, Шарлотта Льюис /Charlotte Lewis/, Тони Тодд /Tony Todd/, Берт Янг /Burt Young/, Эрл Браун, Дэнни Голдринг /Danny Goldring/
Описание: Полицейские Дилан, Терри и Фрэнки взяли людей крупного босса наркомафии ДиМарко во время передачи товара. Но Терри допускает ошибку при допросе одного из задержанных. Суд снимает с ДиМарко обвинение за ведение допроса с применением мер чрезмерного насилия. А в ходе самой операции у ДиМарко пропала крупная сумма денег. С нечеловеческой жестокостью гангстеры "разбираются" сначала с Диланом, а затем и с Фрэнки. Остается один Терри, который получает негласное "добро" от своего шефа на убийство ДиМарко. За Терри и его подругой Анной устраивается настоящая охота, но Терри был парень не промах. Кто за всем этим стоял, вы узнаете сами - фильм смотрится на одном дыхании

Тип релиза: HDTV 1080i
Контейнер: TS
Видео: MPEG-4 AVC, 19000 Кбит/с, 1920x1080, 25.000 кадр/с
Аудио: Русский, MP2, 2 ch, 192 Кбит/с-Андрей Гаврилов
Аудио 2: английский MP2, 2 ch, 192 Кбит/с
Аудио 3: Русский, MP2, 2 ch, 192 Кбит/с-Александр Готлиб
Аудио 4: Русский, MP2, 2 ch, 192 Кбит/с-Тк РОССИЯ

MediaInfo

Общее
Идентификатор : 1 (0x1)
Полное имя : C:\Users\ЯРОСЛАВ\Desktop\чрезмерное насилие 1993\Chrezmernoe.nasilie.(1993).HDTV 1080i.ts
Формат : MPEG-TS
Размер файла : 13,1 Гбайт
Продолжительность : 1 ч. 26 м.
Режим общего битрейта : Переменный
Общий поток : 21,6 Мбит/сек
Максимальный общий битрейт : 35,5 Мбит/сек
Видео
Идентификатор : 4113 (0x1011)
Идентификатор меню : 1 (0x1)
Формат : MPEG Video
Версия формата : Version 2
Профиль формата : [email protected]
Параметр BVOP формата : Да
Параметр матрицы формата : Выборочная
Параметр GOP формата : Variable
Идентификатор кодека : 2
Продолжительность : 1 ч. 26 м.
Вид битрейта : Переменный
Битрейт : 19,4 Мбит/сек
Максимальный битрейт : 29,1 Мбит/сек
Ширина : 1920 пикселей
Высота : 1080 пикселей
Соотношение сторон : 16:9
Частота кадров : 25,000 кадров/сек
Цветовое пространство : YUV
Субдискретизация насыщенности : 4:2:0
Битовая глубина : 8 бит
Тип развёртки : Чересстрочная
Порядок развёртки : Верхнее поле первое
Метод сжатия : С потерями
Бит/(Пиксели*Кадры) : 0.374
TimeCode_FirstFrame : 00:00:00:00
TimeCode_Source : Group of pictures header
Размер потока : 11,8 Гбайт (90%)
Библиотека кодирования : Created by Nero
Аудио #1
Идентификатор : 4352 (0x1100)
Идентификатор меню : 1 (0x1)
Формат : AC-3
Формат/Информация : Audio Coding 3
Расширение режима : CM (complete main)
Параметр Endianness формата : Big
Идентификатор кодека : 129
Продолжительность : 1 ч. 26 м.
Вид битрейта : Постоянный
Битрейт : 128 Кбит/сек
Каналы : 2 канала
Расположение каналов : Front: L R
Частота : 44,1 КГц
Битовая глубина : 16 бит
Метод сжатия : С потерями
Размер потока : 79,5 Мбайт (1%)
Язык : Russian
Аудио #2
Идентификатор : 4353 (0x1101)
Идентификатор меню : 1 (0x1)
Формат : AC-3
Формат/Информация : Audio Coding 3
Расширение режима : CM (complete main)
Параметр Endianness формата : Big
Идентификатор кодека : 129
Продолжительность : 1 ч. 26 м.
Вид битрейта : Постоянный
Битрейт : 192 Кбит/сек
Каналы : 2 канала
Расположение каналов : Front: L R
Частота : 48,0 КГц
Битовая глубина : 16 бит
Метод сжатия : С потерями
Размер потока : 119 Мбайт (1%)
Язык : Russian
Аудио #3
Идентификатор : 4354 (0x1102)
Идентификатор меню : 1 (0x1)
Формат : AC-3
Формат/Информация : Audio Coding 3
Расширение режима : CM (complete main)
Параметр Endianness формата : Big
Идентификатор кодека : 129
Продолжительность : 1 ч. 26 м.
Вид битрейта : Постоянный
Битрейт : 384 Кбит/сек
Каналы : 6 каналов
Расположение каналов : Front: L C R, Side: L R, LFE
Частота : 48,0 КГц
Битовая глубина : 16 бит
Метод сжатия : С потерями
Размер потока : 239 Мбайт (2%)
Язык : Russian
Аудио #4
Идентификатор : 4355 (0x1103)
Идентификатор меню : 1 (0x1)
Формат : AC-3
Формат/Информация : Audio Coding 3
Расширение режима : CM (complete main)
Параметр Endianness формата : Big
Идентификатор кодека : 129
Продолжительность : 1 ч. 26 м.
Вид битрейта : Постоянный
Битрейт : 384 Кбит/сек
Каналы : 6 каналов
Расположение каналов : Front: L C R, Side: L R, LFE
Частота : 48,0 КГц
Битовая глубина : 16 бит
Метод сжатия : С потерями
Размер потока : 239 Мбайт (2%)
Язык : English
Текст
Идентификатор : 4608 (0x1200)
Идентификатор меню : 1 (0x1)
Формат : PGS
Идентификатор кодека : 144

Скриншоты

Other forum [Profile] [PM]
Display posts from previous:    
Reply to topic

The time now is: Today 18:45

All times are GMT + 3 Hours



You cannot post new topics in this forum
You cannot reply to topics in this forum
You cannot edit your posts in this forum
You cannot delete your posts in this forum
You cannot vote in polls in this forum
You cannot attach files in this forum
You cannot download files in this forum