Today is a free download without charge Download

Кровавый Джон / Verine John (Эльберт Туганов / Elbert Tuganov) [1974, Мультфильм для взрослых, кукольный, TVRip] VO

Reply to topic
 
Author
Message

Omen ®

Longevity: 7 years 11 months

Posts: 181087

Торрент-статистика

Post 04-May-2013 11:51

[Quote]

Кровавый Джон / Verine John
Страна: СССР
Жанр: Мультфильм для взрослых, кукольный
Продолжительность: 00:18:27
Год выпуска: 1974
Перевод: Одноголосый закадровый
Русские субтитры: нет
Режиссёр: Эльберт Туганов / Elbert Tuganov
Описание: Мультипликационный фильм для взрослых. Пародийные приключения "кровавого" пирата Джона из рассказа прославленного писателя Г. Розенштрауха на новый лад. Джон – распутный пират из эстонского рода, гроза морей. Все знали главаря пиратов, внушал он страх и ужас.

Доп. информация
: Таллиннфильм
Семпл
Качество: TVRip
Формат: AVI
Видео: 640x480 (1.33:1), 25 fps, XviD build 50 ~1999 kbps avg, 0.26 bit/pixel
Аудио: 48 kHz, MPEG Layer 3, 2 ch, ~128.00 kbps avg
Субтитры: Эстонские (Вшитые)

Подробные технические данные

GeneralComplete name : D:\MOVIE\Krovavyi.djon.1974.XviD.TVRip.aviFormat : AVIFormat/Info : Audio Video InterleaveFile size : 282 MiBDuration : 18mn 27sOverall bit rate : 2 137 KbpsWriting application : VirtualDubMod 1.5.10.2 (build 2540/release)Writing library : VirtualDubMod build 2540/release
VideoID : 0Format : MPEG-4 VisualFormat profile : [email protected] settings, BVOP : NoFormat settings, QPel : NoFormat settings, GMC : No warppointsFormat settings, Matrix : Default (H.263)Codec ID : XVIDCodec ID/Hint : XviDDuration : 18mn 27sBit rate : 1 999 KbpsWidth : 640 pixelsHeight : 480 pixelsDisplay aspect ratio : 4:3Frame rate : 25.000 fpsColor space : YUVChroma subsampling : 4:2:0Bit depth : 8 bitsScan type : ProgressiveCompression mode : LossyBits/(Pixel*Frame) : 0.260Stream size : 264 MiB (94%)Writing library : XviD 1.2.1 (UTC 2008-12-04)
AudioID : 1Format : MPEG AudioFormat version : Version 1Format profile : Layer 3Mode : Joint stereoMode extension : MS StereoCodec ID : 55Codec ID/Hint : MP3Duration : 18mn 27sBit rate mode : ConstantBit rate : 128 KbpsChannel(s) : 2 channelsSampling rate : 48.0 KHzCompression mode : LossyStream size : 16.9 MiB (6%)Alignment : Split accross interleavesInterleave, duration : 40 ms (1.00 video frame)Interleave, preload duration : 500 ms

Скриншоты

Other forum [Profile] [PM]
Similar theme
Forum Topic Author Torrent Replies Last Post
./templates/default/images/folder_dl.gif Обучающее видео Михаил Теремков | Мягкая каркасная кровать своими руками (2016) WEBRip [H.264/1080p-LQ] Omen
1 | 0

0 | 801

1

2016-03-09 18:29
Omen Latest
Display posts from previous:    
Reply to topic

The time now is: Today 03:53

All times are GMT + 3 Hours



You cannot post new topics in this forum
You cannot reply to topics in this forum
You cannot edit your posts in this forum
You cannot delete your posts in this forum
You cannot vote in polls in this forum
You cannot attach files in this forum
You cannot download files in this forum