Today is a free download without charge Download

Грибы / Shrooms (2007) [1080p] Blu-Ray

Reply to topic
 
Author
Message

Varius ®

Gender:

Longevity: 9 years 7 months

Posts: 2416

Location: Hell

Торрент-статистика

Post 25-Jul-2011 08:18

[Quote]

Грибы / Shrooms (2007) [1080p] Blu-Ray-
Русское название: Грибы
Оригинальное название: Shrooms
Слоган: «Почувствуй вкус смерти»
Год выпуска: 2007
Страна: Дания, Великобритания, Ирландия
Жанр: Ужасы, триллер
Описание фильма:
Компания американских подростков в восторге от предложения их ирландского друга Джейка! Он зовет ребят совершить увлекательное путешествие по Ирландии, которое запомнится им на всю жизнь. Поглощенные этой идеей, юные путешественники — прелестная Тара, мужественный Блуто, заядлая туристка Лайза и хиппи Трой со своей подружкой Холли — отправляются в Ирландию, навстречу приключениям.
Прибыв на место, молодые люди разбивают лагерь, а Джейк, взявший на себя роль проводника, рассказывает своим друзьям об особенностях ирландской природы. В числе прочего Джейк упоминает о том, что в данной местности растут грибы, которые ни в коем случае нельзя употреблять в пищу. Человек, съевший такой гриб, либо умирает, либо приобретает сверхъестественные способности, которые позволяют ему разговаривать с мертвыми и предвидеть будущее.

Меню: Присутствует: анимированное
Продолжительность: 01:24:12
Перевод: Дублированный
Субтитры: Русские
Режиссер: Пэдди Бретнэк
В ролях: Линдси Хон, Джек Хьюстон, Макс Кэш, Майя Хэйзен, Элис Грецин, Дон Уичерли, Шон МакГинли, Роберт Хоффман

Дата мировой премьеры: 10 февраля 2007
Дата российской премьеры: 16 августа 2007, «Lizard Cinema»
Дата выхода Blu-Ray релиза: 28 июня 2011, «Lizard Cinema Trade»
Качество: Blu-ray (1080p)
Видео: MPEG-4 AVC, 27841 Кбит/с, 1920x1080
Аудио 1: Русский (DTS-HD MA, 7 ch, 2952 Кбит/с)
Аудио 2: Английский (DTS-HD MA, 6 ch, 2447 Кбит/c)

Трейлер

Дублирование

- Лариса Некипелова
- Наталья Фищук
- Александр Гаврилин
- Илья Хвостиков
- Софья Горшкова

BDInfo:

Код:
Disc Title:     Грибы.2007.x264.Blu-ray.1080p
Disc Size:      22 455 852 462 bytes
Protection:     AACS
BD-Java:        No
BDInfo:         0.5.6
Notes:
BDINFO HOME:
  Cinema Squid
    http://www.cinemasquid.com/blu-ray/tools/bdinfo
INCLUDES FORUMS REPORT FOR:
  AVS Forum Blu-ray Audio and Video Specifications Thread
    http://www.avsforum.com/avs-vb/showthread.php?t=1155731
********************
PLAYLIST: 00002.MPLS
********************
<--- BEGIN FORUMS PASTE --->
[code]
                                                                                                                Total   Video
Title                                                           Codec   Length  Movie Size      Disc Size       Bitrate Bitrate Main Audio Track                          Secondary Audio Track
-----                                                           ------  ------- --------------  --------------  ------- ------- ------------------                        ---------------------
00002.MPLS                                                      AVC     1:24:12 22 267 785 216  22 455 852 462  35,26   27,84   DTS-HD Master 7.1 2952Kbps (48kHz/16-bit)
[/code]
[code]
DISC INFO:
Disc Title:     Грибы.2007.x264.Blu-ray.1080p
Disc Size:      22 455 852 462 bytes
Protection:     AACS
BD-Java:        No
BDInfo:         0.5.6
PLAYLIST REPORT:
Name:                   00002.MPLS
Length:                 1:24:12 (h:m:s)
Size:                   22 267 785 216 bytes
Total Bitrate:          35,26 Mbps
VIDEO:
Codec                   Bitrate             Description
-----                   -------             -----------
MPEG-4 AVC Video        27841 kbps          1080p / 23,976 fps / 16:9 / High Profile 4.1
AUDIO:
Codec                           Language        Bitrate         Description
-----                           --------        -------         -----------
DTS-HD Master Audio             Russian         2952 kbps       7.1 / 48 kHz / 2952 kbps / 16-bit (DTS Core: 5.1 / 48 kHz / 1509 kbps / 16-bit)
DTS-HD Master Audio             English         2447 kbps       5.1 / 48 kHz / 2447 kbps / 16-bit (DTS Core: 5.1 / 48 kHz / 1509 kbps / 16-bit)
SUBTITLES:
Codec                           Language        Bitrate         Description
-----                           --------        -------         -----------
Presentation Graphics           Russian         22,082 kbps
FILES:
Name            Time In         Length          Size            Total Bitrate
----            -------         ------          ----            -------------
00003.M2TS      0:00:00.000     1:24:12.046     22 267 785 216  35 261
CHAPTERS:
Number          Time In         Length          Avg Video Rate  Max 1-Sec Rate  Max 1-Sec Time  Max 5-Sec Rate  Max 5-Sec Time  Max 10Sec Rate  Max 10Sec Time  Avg Frame Size  Max Frame Size  Max Frame Time
------          -------         ------          --------------  --------------  --------------  --------------  --------------  --------------  --------------  --------------  --------------  --------------
1               0:00:00.000     0:05:24.657     26 455 kbps     43 831 kbps     00:00:50.008    39 018 kbps     00:00:46.046    35 747 kbps     00:00:44.919    137 908 bytes   348 038 bytes   00:00:40.957
2               0:05:24.657     0:04:16.172     27 949 kbps     48 711 kbps     00:06:38.022    40 585 kbps     00:06:35.478    35 113 kbps     00:06:35.520    145 712 bytes   355 873 bytes   00:06:03.279
3               0:09:40.830     0:04:56.671     29 383 kbps     41 650 kbps     00:13:29.266    36 555 kbps     00:13:26.305    33 000 kbps     00:13:23.928    153 191 bytes   395 004 bytes   00:11:38.239
4               0:14:37.501     0:04:58.006     29 712 kbps     47 373 kbps     00:17:01.520    41 061 kbps     00:16:58.642    37 820 kbps     00:17:00.644    154 907 bytes   411 678 bytes   00:17:03.480
5               0:19:35.507     0:04:43.283     29 006 kbps     44 241 kbps     00:23:04.341    36 883 kbps     00:23:03.465    32 887 kbps     00:23:03.006    151 224 bytes   331 553 bytes   00:21:26.451
6               0:24:18.790     0:05:21.029     28 353 kbps     37 481 kbps     00:28:10.438    33 936 kbps     00:24:30.844    32 182 kbps     00:24:27.340    147 818 bytes   293 169 bytes   00:28:26.287
7               0:29:39.819     0:05:49.849     29 555 kbps     40 033 kbps     00:30:09.224    35 726 kbps     00:30:09.224    32 776 kbps     00:35:12.443    154 088 bytes   334 090 bytes   00:31:29.512
8               0:35:29.669     0:04:48.788     28 996 kbps     47 480 kbps     00:38:03.239    37 103 kbps     00:38:01.988    33 022 kbps     00:37:57.024    151 174 bytes   385 034 bytes   00:40:18.457
9               0:40:18.457     0:08:26.005     29 216 kbps     44 852 kbps     00:44:42.763    39 396 kbps     00:44:17.237    37 494 kbps     00:44:15.069    152 320 bytes   375 139 bytes   00:43:28.522
10              0:48:44.463     0:05:57.607     27 499 kbps     40 133 kbps     00:54:29.474    33 240 kbps     00:53:21.531    32 053 kbps     00:53:17.319    143 367 bytes   358 360 bytes   00:49:26.254
11              0:54:42.070     0:06:47.281     30 033 kbps     45 399 kbps     00:58:47.815    38 894 kbps     00:55:39.002    36 063 kbps     00:58:47.315    156 577 bytes   369 173 bytes   01:00:53.608
12              1:01:29.352     0:05:09.517     31 636 kbps     48 631 kbps     01:06:09.048    40 818 kbps     01:01:33.940    37 339 kbps     01:05:34.055    164 935 bytes   384 694 bytes   01:06:09.840
13              1:06:38.869     0:04:36.609     28 467 kbps     44 904 kbps     01:08:26.519    35 978 kbps     01:08:23.307    32 476 kbps     01:08:18.302    148 413 bytes   392 686 bytes   01:09:31.041
14              1:11:15.479     0:05:02.135     29 068 kbps     42 788 kbps     01:16:07.187    39 799 kbps     01:16:03.976    38 725 kbps     01:16:03.517    151 545 bytes   329 017 bytes   01:15:58.637
15              1:16:17.614     0:03:34.839     32 201 kbps     46 259 kbps     01:18:52.227    38 374 kbps     01:18:09.184    36 444 kbps     01:18:09.226    167 880 bytes   455 357 bytes   01:18:10.602
16              1:19:52.454     0:04:19.592     4 173 kbps      10 745 kbps     01:23:12.862    9 657 kbps      01:23:09.859    9 163 kbps      01:23:07.607    21 760 bytes    187 117 bytes   01:23:13.655
STREAM DIAGNOSTICS:
File            PID             Type            Codec           Language                Seconds                 Bitrate                 Bytes           Packets
----            ---             ----            -----           --------                --------------          --------------          -------------   -----
00003.M2TS      4113 (0x1011)   0x1B            AVC                                     5051,964                27 841                  17 581 485 958  95 622 419
00003.M2TS      4352 (0x1100)   0x86            DTS-HD MA       rus (Russian)           5051,964                2 952                   1 864 462 188   10 920 094
00003.M2TS      4353 (0x1101)   0x86            DTS-HD MA       eng (English)           5051,964                2 448                   1 545 604 736   9 184 880
00003.M2TS      4608 (0x1200)   0x90            PGS             rus (Russian)           5051,964                22                      13 945 198      81 391
[/code]
<---- END FORUMS PASTE ---->
QUICK SUMMARY:
Disc Title: Грибы.2007.x264.Blu-ray.1080p
Disc Size: 22 455 852 462 bytes
Protection: AACS
BD-Java: No
Playlist: 00002.MPLS
Size: 22 267 785 216 bytes
Length: 1:24:12
Total Bitrate: 35,26 Mbps
Video: MPEG-4 AVC Video / 27841 kbps / 1080p / 23,976 fps / 16:9 / High Profile 4.1
Audio: Russian / DTS-HD Master Audio / 7.1 / 48 kHz / 2952 kbps / 16-bit (DTS Core: 5.1 / 48 kHz / 1509 kbps / 16-bit)
Audio: English / DTS-HD Master Audio / 5.1 / 48 kHz / 2447 kbps / 16-bit (DTS Core: 5.1 / 48 kHz / 1509 kbps / 16-bit)
Subtitle: Russian / 22,082 kbps
********************
PLAYLIST: 00001.MPLS
********************
<--- BEGIN FORUMS PASTE --->
[code]
                                                                                                                Total   Video
Title                                                           Codec   Length  Movie Size      Disc Size       Bitrate Bitrate Main Audio Track                          Secondary Audio Track
-----                                                           ------  ------- --------------  --------------  ------- ------- ------------------                        ---------------------
00001.MPLS                                                      AVC     0:00:25 58 275 840      22 455 852 462  18,60   15,30   DTS-HD Master 7.1 2315Kbps (48kHz/16-bit)
[/code]
[code]
DISC INFO:
Disc Title:     Грибы.2007.x264.Blu-ray.1080p
Disc Size:      22 455 852 462 bytes
Protection:     AACS
BD-Java:        No
BDInfo:         0.5.6
PLAYLIST REPORT:
Name:                   00001.MPLS
Length:                 0:00:25 (h:m:s)
Size:                   58 275 840 bytes
Total Bitrate:          18,60 Mbps
VIDEO:
Codec                   Bitrate             Description
-----                   -------             -----------
MPEG-4 AVC Video        15298 kbps          1080p / 23,976 fps / 16:9 / High Profile 4.1
AUDIO:
Codec                           Language        Bitrate         Description
-----                           --------        -------         -----------
DTS-HD Master Audio             Russian         2315 kbps       7.1 / 48 kHz / 2315 kbps / 16-bit (DTS Core: 5.1 / 48 kHz / 1509 kbps / 16-bit)
FILES:
Name            Time In         Length          Size            Total Bitrate
----            -------         ------          ----            -------------
00001.M2TS      0:00:00.000     0:00:14.389     31 899 648      17 735
00002.M2TS      0:00:14.389     0:00:10.677     26 376 192      19 762
CHAPTERS:
Number          Time In         Length          Avg Video Rate  Max 1-Sec Rate  Max 1-Sec Time  Max 5-Sec Rate  Max 5-Sec Time  Max 10Sec Rate  Max 10Sec Time  Avg Frame Size  Max Frame Size  Max Frame Time
------          -------         ------          --------------  --------------  --------------  --------------  --------------  --------------  --------------  --------------  --------------  --------------
1               0:00:00.000     0:00:14.389     12 994 kbps     25 009 kbps     00:00:04.796    18 929 kbps     00:00:01.334    17 213 kbps     00:00:01.000    67 550 bytes    262 979 bytes   00:00:09.467
2               0:00:14.389     0:00:10.677     18 403 kbps     28 437 kbps     00:00:16.099    24 957 kbps     00:00:16.141    19 568 kbps     00:00:14.472    96 323 bytes    322 135 bytes   00:00:22.313
STREAM DIAGNOSTICS:
File            PID             Type            Codec           Language                Seconds                 Bitrate                 Bytes           Packets
----            ---             ----            -----           --------                --------------          --------------          -------------   -----
00001.M2TS      4113 (0x1011)   0x1B            AVC                                     14,223                  13 145                  23 369 729      127 213
00001.M2TS      4352 (0x1100)   0x86            DTS-HD MA       rus (Russian)           14,223                  3 743                   6 653 992       38 401
00002.M2TS      4113 (0x1011)   0x1B            AVC                                     10,594                  18 550                  24 564 916      133 652
00002.M2TS      4352 (0x1100)   0x81            AC3             rus (Russian)           10,594                  452                     598 528         3 340
[/code]
<---- END FORUMS PASTE ---->
QUICK SUMMARY:
Disc Title: Грибы.2007.x264.Blu-ray.1080p
Disc Size: 22 455 852 462 bytes
Protection: AACS
BD-Java: No
Playlist: 00001.MPLS
Size: 58 275 840 bytes
Length: 0:00:25
Total Bitrate: 18,60 Mbps
Video: MPEG-4 AVC Video / 15298 kbps / 1080p / 23,976 fps / 16:9 / High Profile 4.1
Audio: Russian / DTS-HD Master Audio / 7.1 / 48 kHz / 2315 kbps / 16-bit (DTS Core: 5.1 / 48 kHz / 1509 kbps / 16-bit)
Скриншоты:        

_________________

Создавая "Новую папку", не считайте себя Создателем - это право Вам дано Админом


Other forum [Profile] [PM]
Display posts from previous:    
Reply to topic

The time now is: Today 00:06

All times are GMT + 3 Hours



You cannot post new topics in this forum
You cannot reply to topics in this forum
You cannot edit your posts in this forum
You cannot delete your posts in this forum
You cannot vote in polls in this forum
You cannot attach files in this forum
You cannot download files in this forum