Today is a free download without charge Download

Соловей-разбойник (Егор Баранов) [2012, боевик, комедия, криминал, BDRip 1080p]

Reply to topic
 
Author
Message

Omen ®

Longevity: 8 years 10 months

Posts: 181086

Торрент-статистика

Post 04-May-2013 07:47

[Quote]

Соловей-разбойник
Страна: Россия
Студия: Studio Ortodoks
Жанр: боевик, комедия, криминал
Год выпуска: 2012
Продолжительность: 01:31:39
Субтитры: нет
Навигация по главам: есть
Режиссер: Егор Баранов
В ролях: Иван Охлобыстин, Евгений Стычкин, Оксана Фандера, Игорь Жижикин, Сергей Бадюк, Александр Стриженов, Павел Прилучный, Мария Голубкина, Александр Сухинин, Михаил Горевой
Описание: История о дерзком романтике Соловьёве Севастьяне Григорьевиче, cтупившем по зову крови на лихую стезю русского разбоя. И пока спецслужбы во главе с секретным агентом Н7 пытаются ликвидировать банду Соловья-Разбойника, он, со свойственным ему драйвом и озорством, восстанавливает в родном краю справедливость. Но рано или поздно любой «сказке» приходит конец….

Релиз: fanatus
Качество видео: BDRip 1080p
Исходник: Blu-Ray 1080p (Rus)
Контейнер: MKV
Видео: MPEG-4 AVC, 11000 kbps, 1916x814 (2.35:1), 24.000 fps, 0.294 bit/pixel
Аудио: DTS, 6 ch, 48 kHz, 1510 kbps

MediaInfo

General
Unique ID : 203921399878664615515230996845974868191 (0x9969D541A2B0B33590167E2CED1D50DF)
Complete name : E:\Solovej-razbojnik.2012.x264.BDRip.1080p.fanatus.mkv
Format : Matroska
Format version : Version 2
File size : 8.01 GiB
Duration : 1h 31mn
Overall bit rate : 12.5 Mbps
Movie name : Solovey-Razboynik (2012) - fanatus
Encoded date : UTC 2013-04-17 09:30:12
Writing application : mkvmerge v3.4.0 ('Rapunzel') сборка от May 15 2010 09:38:20
Writing library : libebml v0.8.0 + libmatroska v0.9.0
Video
ID : 1
Format : AVC
Format/Info : Advanced Video Codec
Format profile : [email protected]
Format settings, CABAC : Yes
Format settings, ReFrames : 5 frames
Codec ID : V_MPEG4/ISO/AVC
Duration : 1h 31mn
Bit rate : 11.0 Mbps
Width : 1 916 pixels
Height : 814 pixels
Display aspect ratio : 2.35:1
Frame rate : 24.000 fps
Color space : YUV
Chroma subsampling : 4:2:0
Bit depth : 8 bits
Scan type : Progressive
Bits/(Pixel*Frame) : 0.294
Stream size : 6.88 GiB (86%)
Title : Solovey-Razboynik (2012)
Writing library : x264 core 130 r2273 b3065e6
Encoding settings : cabac=1 / ref=5 / deblock=1:-3:-3 / analyse=0x3:0x113 / me=tesa / subme=11 / psy=1 / psy_rd=0.95:0.00 / mixed_ref=1 / me_range=48 / chroma_me=1 / trellis=2 / 8x8dct=1 / cqm=0 / deadzone=21,11 / fast_pskip=0 / chroma_qp_offset=-2 / threads=16 / lookahead_threads=2 / sliced_threads=0 / nr=0 / decimate=0 / interlaced=0 / bluray_compat=0 / constrained_intra=0 / bframes=9 / b_pyramid=2 / b_adapt=2 / b_bias=0 / direct=3 / weightb=1 / open_gop=0 / weightp=2 / keyint=240 / keyint_min=24 / scenecut=40 / intra_refresh=0 / rc_lookahead=240 / rc=2pass / mbtree=0 / bitrate=11000 / ratetol=1.0 / qcomp=0.70 / qpmin=0 / qpmax=69 / qpstep=4 / cplxblur=20.0 / qblur=0.5 / vbv_maxrate=50000 / vbv_bufsize=62500 / nal_hrd=none / ip_ratio=1.40 / pb_ratio=1.30 / aq=1:0.95
Language : Russian
Default : Yes
Forced : No
Matrix coefficients : BT.709-5, BT.1361, IEC 61966-2-4 709, SMPTE RP177
Audio
ID : 2
Format : DTS
Format/Info : Digital Theater Systems
Codec ID : A_DTS
Duration : 1h 31mn
Bit rate mode : Constant
Bit rate : 1 510 Kbps
Channel(s) : 6 channels
Channel positions : Front: L C R, Side: L R, LFE
Sampling rate : 48.0 KHz
Bit depth : 16 bits
Compression mode : Lossy
Stream size : 990 MiB (12%)
Title : Original
Language : Russian
Default : Yes
Forced : No
Menu
00:00:00.000 : :Chapter 01
00:06:16.125 : :Chapter 02
00:15:28.791 : :Chapter 03
00:27:35.041 : :Chapter 04
00:39:01.208 : :Chapter 05
00:49:36.791 : :Chapter 06
00:56:01.041 : :Chapter 07
01:01:00.875 : :Chapter 08
01:04:10.916 : :Chapter 09
01:13:11.833 : :Chapter 10
01:17:37.291 : :Chapter 11
01:27:16.208 : :Chapter 12
01:31:39.125 : :Chapter 13

x264 [info]

---[NoImage] raw [info]: 1916x814p 1:1 @ 24/1 fps (cfr)
---[NoImage] x264 [info]: using SAR=1/1
---[NoImage] x264 [info]: using cpu capabilities: MMX2 SSE2Fast SSEMisalign LZCNT
---[NoImage] x264 [info]: profile High, level 4.1
---[NoImage]
---[NoImage] x264 [info]: frame I:1026 Avg QP:15.12 size:212515
---[NoImage] x264 [info]: frame P:30816 Avg QP:17.84 size:101235
---[NoImage] x264 [info]: frame B:100139 Avg QP:19.36 size: 42148
---[NoImage] x264 [info]: consecutive B-frames: 4.2% 3.7% 8.5% 16.2% 13.0% 43.1% 5.1% 1.0% 2.5% 2.8%
---[NoImage] x264 [info]: mb I I16..4: 5.7% 83.7% 10.6%
---[NoImage] x264 [info]: mb P I16..4: 1.6% 20.5% 1.3% P16..4: 25.8% 32.5% 13.7% 0.0% 0.0% skip: 4.6%
---[NoImage] x264 [info]: mb B I16..4: 0.2% 1.7% 0.1% B16..8: 34.8% 23.9% 5.9% direct: 8.3% skip:25.1% L0:44.6% L1:43.2% BI:12.2%
---[NoImage] x264 [info]: 8x8 transform intra:87.3% inter:62.2%
---[NoImage] x264 [info]: direct mvs spatial:97.9% temporal:2.1%
---[NoImage] x264 [info]: coded y,uvDC,uvAC intra: 89.3% 87.5% 74.5% inter: 42.1% 39.2% 15.4%
---[NoImage] x264 [info]: i16 v,h,dc,p: 51% 19% 4% 26%
---[NoImage] x264 [info]: i8 v,h,dc,ddl,ddr,vr,hd,vl,hu: 8% 7% 8% 11% 15% 13% 13% 12% 14%
---[NoImage] x264 [info]: i4 v,h,dc,ddl,ddr,vr,hd,vl,hu: 11% 8% 8% 8% 15% 13% 13% 11% 13%
---[NoImage] x264 [info]: i8c dc,h,v,p: 42% 22% 17% 20%
---[NoImage] x264 [info]: Weighted P-Frames: Y:2.1% UV:1.4%
---[NoImage] x264 [info]: ref P L0: 48.0% 10.9% 22.5% 9.1% 8.5% 1.0% 0.0%
---[NoImage] x264 [info]: ref B L0: 74.8% 17.7% 5.9% 1.6%
---[NoImage] x264 [info]: ref B L1: 92.2% 7.8%
---[NoImage] x264 [info]: kb/s:10995.62
---[NoImage] encoded 131981 frames, 1.54 fps, 10995.62 kb/s

Скриншот c названием фильма

Other forum [Profile] [PM]
Display posts from previous:    
Reply to topic

The time now is: Today 22:11

All times are GMT + 3 Hours



You cannot post new topics in this forum
You cannot reply to topics in this forum
You cannot edit your posts in this forum
You cannot delete your posts in this forum
You cannot vote in polls in this forum
You cannot attach files in this forum
You cannot download files in this forum