Today is a free download without charge Download

Дрянные девчонки 2 / Mean Girls 2 (Мелани Мейрон / Melanie Mayron) [2011, комедия, WEBDL 720p] MVO (iTunes) + DVO (НТВ+) + Original (eng) + Sub (rus, eng)

Reply to topic
 
Author
Message

Omen ®

Longevity: 8 years 5 months

Posts: 181087

Торрент-статистика

Post 04-May-2013 07:47

[Quote]

Дрянные девчонки 2 / Mean Girls 2«Баунти возвращаются!»- Год выпуска: 2011
Страна: США
Жанр: комедия
Продолжительность: 01:36:57
Перевод 1: Профессиональный (многоголосый, закадровый) |iTunes Russia|
Перевод 2: Профессиональный (двухголосый, закадровый) |НТВ+|
Оригинальная аудиодорожка: английская
Субтитры: русские (notabenoid), английские |*srt|-Режиссер: Мелани Мейрон / Melanie Mayron-В ролях: Меган Йётте Мартин, Донн Ламкин, Линден Эшби, Дэн Коулмэн, Клер Холт, Патрик Джонсон, Колин Деннард, Майра Уолш, Николь Гэйл Андерсон, Бетани Энн Линд-Описание: В этот раз речь пойдет об Эбби — богатой, но не популярной в школе и Джо — не богатой, но смелой. После очередной пакости Мэнди — «пластиковой» королевы Джо подвозит Эбби домой и сталкивается там с отцом Эбби, который предлагает оплатить учебы девушки за дружбу с его дочкой. «Кому от этого будет плохо?» — подумала Джо и тут понеслась… Пакости, сплетни, интриги и многое другое, как у первых дрянных девчонок и даже гораздо лучше!- -Сэмпл: http://multi-up.com/861820-Качество: WEBDL 720p (Источник: iTunes WEB-DL | )
Формат: MKV
Видео: 1280x718 at 23.976 fps, MPEG-4 AVC, ~4000 kbps avg
Аудио 1: 48 kHz, AC3 Dolby Digital, 3/2 (L,C,R,l,r) + LFE ch, ~384.00 kbps avg |MVO, iTunes Russia|
Аудио 2: 48 KHz, AC3 Dolby Digital, 2/0 (L,R), ~ 192.00 kbps avg |DVO, НТВ+|
Аудио 3: 48 kHz, AAC, 2/0 (L,R) ch, ~160.00 kbps avg |ENG|
-

Media Info

Код:
Формат                                   : Matroska
Версия формата                           : Version 4 / Version 2
Размер файла                             : 3,13 Гбайт
Продолжительность                        : 1 ч. 36 м.
Общий поток                              : 4615 Кбит/сек
Дата кодирования                         : UTC 2013-05-04 01:44:47
Программа кодирования                    : mkvmerge v6.2.0 ('Promised Land') built on Apr 28 2013 12:22:01
Библиотека кодирования                   : libebml v1.3.0 + libmatroska v1.4.0
Видео
Идентификатор                            : 1
Формат                                   : AVC
Формат/Информация                        : Advanced Video Codec
Профиль формата                          : [email protected]
Параметр CABAC формата                   : Нет
Параметр ReFrames формата                : 2 кадра
Идентификатор кодека                     : V_MPEG4/ISO/AVC
Продолжительность                        : 1 ч. 36 м.
Ширина                                   : 1280 пикселей
Высота                                   : 718 пикселей
Соотношение сторон                       : 16:9
Режим частоты кадров                     : Постоянный
Частота кадров                           : 23,976 кадра/сек
Цветовое пространство                    : YUV
Субдискретизация насыщенности            : 4:2:0
Битовая глубина                          : 8 бит
Тип развёртки                            : Прогрессивная
Заголовок                                : Mean Girls 2 (2011) - Release for HDCLUB
Язык                                     : English
Default                                  : Да
Forced                                   : Нет
Основные цвета                           : BT.709
Характеристики трансфера                 : BT.709
Коэффициенты матрицы                     : BT.709
Аудио #1
Идентификатор                            : 2
Формат                                   : AC-3
Формат/Информация                        : Audio Coding 3
Расширение режима                        : CM (complete main)
Параметр Endianness формата              : Big
Идентификатор кодека                     : A_AC3
Продолжительность                        : 1 ч. 36 м.
Вид битрейта                             : Постоянный
Битрейт                                  : 384 Кбит/сек
Каналы                                   : 6 каналов
Расположение каналов                     : Front: L C R, Side: L R, LFE
Частота                                  : 48,0 КГц
Битовая глубина                          : 16 бит
Метод сжатия                             : С потерями
Размер потока                            : 266 Мбайт (8%)
Заголовок                                : AC3 5.1 ch @ 384 kbps MVO
Язык                                     : Russian
Default                                  : Да
Forced                                   : Нет
Аудио #2
Идентификатор                            : 3
Формат                                   : AC-3
Формат/Информация                        : Audio Coding 3
Расширение режима                        : CM (complete main)
Параметр Endianness формата              : Big
Идентификатор кодека                     : A_AC3
Продолжительность                        : 1 ч. 36 м.
Вид битрейта                             : Постоянный
Битрейт                                  : 192 Кбит/сек
Каналы                                   : 2 канала
Расположение каналов                     : Front: L R
Частота                                  : 48,0 КГц
Битовая глубина                          : 16 бит
Метод сжатия                             : С потерями
Задержка видео                           : 28 мс.
Размер потока                            : 133 Мбайт (4%)
Заголовок                                : AC3 2.0 ch @ 192 kbps DVO - NTV+
Язык                                     : Russian
Default                                  : Нет
Forced                                   : Нет
Аудио #3
Идентификатор                            : 4
Формат                                   : AAC
Формат/Информация                        : Advanced Audio Codec
Профиль формата                          : LC
Идентификатор кодека                     : A_AAC
Продолжительность                        : 1 ч. 36 м.
Каналы                                   : 2 канала
Расположение каналов                     : Front: L R
Частота                                  : 48,0 КГц
Метод сжатия                             : С потерями
Заголовок                                : AAC 2.0 ch @ 160 kbps
Язык                                     : English
Default                                  : Нет
Forced                                   : Нет
Текст #1
Идентификатор                            : 5
Формат                                   : UTF-8
Идентификатор кодека                     : S_TEXT/UTF8
Идентификатор кодека/Информация          : UTF-8 Plain Text
Заголовок                                : notabenoid - rus
Язык                                     : Russian
Default                                  : Нет
Forced                                   : Нет
Текст #2
Идентификатор                            : 6
Формат                                   : UTF-8
Идентификатор кодека                     : S_TEXT/UTF8
Идентификатор кодека/Информация          : UTF-8 Plain Text
Заголовок                                : eng
Язык                                     : English
Default                                  : Нет
Forced                                   : Нет
Меню
00:00:00.000                             : en:1
00:04:05.000                             : en:2
00:06:19.000                             : en:3
00:10:22.000                             : en:4
00:14:06.000                             : en:5
00:17:19.000                             : en:6
00:19:12.000                             : en:7
00:22:40.000                             : en:8
00:25:34.000                             : en:9
00:29:16.000                             : en:10
00:33:12.000                             : en:11
00:35:07.000                             : en:12
00:39:13.000                             : en:13
00:43:07.000                             : en:14
00:47:28.000                             : en:15
00:52:11.000                             : en:16
00:55:23.000                             : en:17
01:00:10.000                             : en:18
01:05:01.000                             : en:19
01:07:46.000                             : en:20
01:16:30.000                             : en:21
01:26:31.000                             : en:22

Скриншоты

Цитата:
Сохранены оригинальные чаптеры.
Исходный WEB-DL куплен в рамках сервиса "Копилка".
Other forum [Profile] [PM]
Display posts from previous:    
Reply to topic

The time now is: Today 11:32

All times are GMT + 3 Hours



You cannot post new topics in this forum
You cannot reply to topics in this forum
You cannot edit your posts in this forum
You cannot delete your posts in this forum
You cannot vote in polls in this forum
You cannot attach files in this forum
You cannot download files in this forum